<?xml version="1.0" standalone="no"?>
<!DOCTYPE svg PUBLIC "-//W3C//DTD SVG 1.1//EN" "http://www.w3.org/Graphics/SVG/1.1/DTD/svg11.dtd" >
<svg xmlns="http://www.w3.org/2000/svg">
<metadata>Generated by IcoMoon</metadata>
<defs>
<font id="icomoon" horiz-adv-x="1024">
<font-face units-per-em="1024" ascent="960" descent="-64" />
<missing-glyph horiz-adv-x="1024" />
<glyph unicode="&#x20;" horiz-adv-x="512" d="" />
<glyph unicode="&#xe900;" glyph-name="clipboard" horiz-adv-x="969" d="M876.089 746.43c0 52.385-42.667 94.815-94.815 94.815h-89.837c-14.459 35.556-49.304 59.259-87.941 59.259h-30.578c-14.459 35.556-49.304 59.259-87.941 59.259s-73.481-23.704-87.941-59.259h-30.578c-38.637 0-73.481-23.704-87.941-59.259h-90.311c-52.385 0-94.815-42.667-94.815-94.815v-715.615c0-52.385 42.667-94.815 94.815-94.815h593.067c52.385 0 94.815 42.43 94.815 94.578v715.852zM461.037 865.185c0 13.037 10.667 23.704 23.704 23.704s23.704-10.667 23.704-23.704c0-19.674 15.881-35.556 35.556-35.556h59.259c13.037 0 23.704-10.667 23.704-23.704v-23.704h-284.444v23.704c0 13.037 10.667 23.704 23.704 23.704h59.259c19.674-0.237 35.556 15.881 35.556 35.556zM306.726 710.874h355.793c19.674 0 35.556 15.881 35.556 35.556v23.704h82.963c13.037 0 23.704-10.667 23.704-23.704v-715.852c0-12.8-10.667-23.467-23.704-23.467h-592.83c-13.037 0-23.704 10.667-23.704 23.704v715.615c0 13.037 10.667 23.704 23.704 23.704h82.963v-23.704c0-19.674 16.119-35.556 35.556-35.556zM484.741 54.519c150.519 0 272.83 122.311 272.83 272.83s-122.311 272.83-272.83 272.83-272.83-122.311-272.83-272.83c0-150.281 122.311-272.83 272.83-272.83zM283.259 327.348c0 111.17 90.311 201.481 201.481 201.481s201.481-90.311 201.481-201.481c0-111.17-90.311-201.481-201.481-201.481s-201.481 90.311-201.481 201.481zM449.185 291.793v-82.963c0-19.674 15.881-35.556 35.556-35.556s35.556 15.881 35.556 35.556v82.963h82.963c19.674 0 35.556 15.881 35.556 35.556s-15.881 35.556-35.556 35.556h-82.963v82.963c0 19.674-15.881 35.556-35.556 35.556s-35.556-15.881-35.556-35.556v-82.963h-82.963c-19.674 0-35.556-15.881-35.556-35.556s15.881-35.556 35.556-35.556h82.963z" />
<glyph unicode="&#xe901;" glyph-name="add_user" horiz-adv-x="892" d="M882.424 137.697h-99.394v107.152c0.008 0.145 0.012 0.314 0.012 0.485 0 5.355-4.341 9.697-9.697 9.697-0.004 0-0.009 0-0.013 0h-64.969c-0.004 0-0.008 0-0.012 0-5.355 0-9.697-4.341-9.697-9.697 0-0.171 0.004-0.34 0.013-0.508l-0.001 0.024v-107.152h-101.333c-5.143-0.265-9.212-4.5-9.212-9.685 0-0.004 0-0.009 0-0.013v0.001-69.818c0-0.004 0-0.008 0-0.012 0-5.185 4.069-9.419 9.189-9.684l0.024-0.001h99.879v-104.727c-0.008-0.145-0.012-0.314-0.012-0.485 0-5.355 4.341-9.697 9.697-9.697 0.004 0 0.009 0 0.013 0h66.423c0.004 0 0.008 0 0.012 0 5.355 0 9.697 4.341 9.697 9.697 0 0.171-0.004 0.34-0.013 0.508l0.001-0.024v107.152h99.394c5.355 0 9.697 4.341 9.697 9.697v0 69.818c-1.113 4.218-4.895 7.278-9.39 7.278-0.108 0-0.215-0.002-0.322-0.005h0.016zM638.061 283.152c0.724-0.246 1.557-0.389 2.424-0.389s1.701 0.142 2.479 0.405l-0.055-0.016c27.825 15.861 61.14 25.212 96.64 25.212 0.116 0 0.232 0 0.348 0h-0.018c2.058 0.377 3.597 2.157 3.597 4.296 0 1.152-0.446 2.199-1.175 2.979l0.002-0.002c-34.943 33.169-75.661 60.69-120.414 80.837l-2.737 1.102c74.35 58.022 121.706 147.641 121.706 248.321 0 0.825-0.003 1.649-0.010 2.473l0.001-0.127c0.157 3.634 0.246 7.898 0.246 12.182 0 164.426-131.589 298.118-295.202 301.51l-0.317 0.005c-163.248-4.253-293.962-137.601-293.962-301.48 0-3.273 0.052-6.534 0.156-9.782l-0.012 0.474c-0.012-1.032-0.019-2.251-0.019-3.472 0-100.036 46.753-189.152 119.599-246.69l0.662-0.505c-55.192-25.162-102.17-58.949-141.399-100.177l-0.177-0.187c-40.415-41.706-73.176-91.109-95.835-145.76l-1.135-3.089c-21.038-50.856-33.755-109.846-34.902-171.663l-0.007-0.458c-0.113-0.583-0.178-1.254-0.178-1.939s0.065-1.356 0.188-2.006l-0.011 0.067c0.547-1.35 1.373-2.488 2.413-3.384l0.011-0.010s0 0 2.909 0c0.575-0.231 1.242-0.365 1.939-0.365s1.364 0.134 1.975 0.378l-0.036-0.013h72.727c5.355 0 9.697 4.341 9.697 9.697v0c2.419 98.322 41.665 187.033 104.405 253.264l-0.163-0.173c62.563 66.931 151.38 108.645 249.94 108.645 69.327 0 133.834-20.639 187.711-56.108l-1.287 0.796c1.446-2.681 4.113-4.543 7.235-4.846l0.038-0.003zM444.121 435.394c-0.331-0.002-0.722-0.003-1.114-0.003-56.882 0-108.156 24.008-144.243 62.443l-0.098 0.105c-17.576 20.135-31.725 43.804-41.202 69.723l-0.495 1.549c-9.525 23.344-15.053 50.43-15.053 78.808 0 1.101 0.008 2.2 0.025 3.297l-0.002-0.166c-0.007 0.638-0.011 1.392-0.011 2.146 0 57.857 22.722 110.406 59.729 149.212l-0.081-0.086c36.062 39.655 87.863 64.448 145.455 64.448s109.393-24.793 145.311-64.289l0.143-0.16c18.551-19.4 33.49-42.435 43.62-67.905l0.501-1.428c9.788-24.285 15.481-52.443 15.515-81.926v-0.013c0.001-0.269 0.002-0.587 0.002-0.905 0-58.403-22.695-111.506-59.748-150.97l0.109 0.118c-36.497-38.557-88.037-62.553-145.183-62.553-0.607 0-1.213 0.003-1.819 0.008l0.093-0.001z" />
<glyph unicode="&#xe902;" glyph-name="add-ubication" d="M759.467 814.933c-64 59.733-145.067 98.133-230.4 102.4s-170.667-21.333-238.933-76.8c-64-55.467-106.667-132.267-123.733-217.6-12.8-85.333 4.267-170.667 51.2-243.2l243.2-371.2c4.267-8.533 12.8-17.067 21.333-21.333s17.067-8.533 29.867-8.533c8.533 0 21.333 4.267 29.867 8.533s17.067 12.8 21.333 21.333l243.2 371.2c42.667 68.267 64 145.067 55.467 226.133-12.8 76.8-46.933 153.6-102.4 209.067v0zM750.933 413.867l-238.933-366.933-238.933 366.933c-72.533 110.933-55.467 260.267 38.4 354.133 25.6 25.6 55.467 46.933 93.867 64 34.133 12.8 72.533 21.333 106.667 21.333 38.4 0 72.533-8.533 106.667-21.333s64-34.133 93.867-59.733c93.867-98.133 110.933-247.467 38.4-358.4zM644.267 610.133h-93.867v102.4c0 4.267-4.267 8.533-8.533 8.533h-64c-4.267 0-8.533-4.267-8.533-8.533v-102.4h-98.133c-4.267 0-8.533-4.267-8.533-8.533v-68.267c0-4.267 4.267-8.533 8.533-8.533h93.867v-102.4c0-4.267 4.267-8.533 8.533-8.533h64c4.267 0 8.533 4.267 8.533 8.533v102.4h93.867c4.267 0 8.533 4.267 8.533 8.533v68.267c4.267 4.267 0 8.533-4.267 8.533z" />
<glyph unicode="&#xe903;" glyph-name="administrador" horiz-adv-x="1041" d="M290.133 282.453l-20.48-151.893c0-1.707 0-3.413 0-5.12s1.707-3.413 1.707-5.12c1.707-1.707 3.413-1.707 3.413-3.413 1.707 0 3.413-1.707 5.12-1.707h459.093c1.707 0 3.413 0 5.12 1.707 1.707 0 3.413 1.707 3.413 3.413 1.707 1.707 1.707 3.413 1.707 5.12s0 3.413 0 5.12l-15.36 151.893c-3.413 20.48-11.947 40.96-25.6 58.027-13.653 15.36-32.427 27.307-52.907 34.133l-81.92 23.893c0 1.707 0 1.707 0 3.413v32.427c15.36 8.533 27.307 20.48 37.547 34.133s17.067 29.013 20.48 46.080c11.947 1.707 22.187 8.533 30.72 18.773 6.827 10.24 11.947 22.187 11.947 34.133 0 6.827-1.707 13.653-3.413 20.48s-6.827 11.947-11.947 17.067c3.413 11.947 5.12 23.893 6.827 35.84l3.413 56.32c0 46.080-42.667 83.627-93.867 83.627h-122.88c-51.2 0-93.867-37.547-93.867-83.627l3.413-75.093c0-6.827 1.707-13.653 5.12-20.48-8.533-10.24-13.653-22.187-13.653-35.84 0-11.947 3.413-23.893 11.947-34.133 6.827-10.24 18.773-15.36 30.72-18.773 3.413-17.067 10.24-32.427 20.48-46.080s22.187-25.6 37.547-34.133v-32.427c0-1.707 0-1.707 0-3.413l-81.92-23.893c-20.48-6.827-39.253-18.773-52.907-34.133-17.067-13.653-25.6-34.133-29.013-56.32v0zM648.533 567.467c0-5.12-1.707-10.24-3.413-15.36-3.413-5.12-6.827-8.533-10.24-10.24v51.2c5.12-1.707 8.533-6.827 10.24-10.24 1.707-5.12 3.413-10.24 3.413-15.36zM390.827 541.867c-5.12 3.413-8.533 6.827-10.24 10.24-3.413 5.12-5.12 10.24-5.12 15.36s1.707 10.24 3.413 15.36c3.413 5.12 6.827 8.533 10.24 10.24v-51.2zM390.827 639.147c0 0 0-1.707 0 0v-18.773c-1.707 0-3.413-1.707-5.12-1.707-1.707 1.707-1.707 5.12-1.707 6.827l-3.413 73.387c0 32.427 30.72 58.027 69.973 58.027h122.88c39.253 0 69.973-25.6 69.973-58.027l-3.413-56.32c0-8.533-1.707-17.067-3.413-23.893 0 0-1.707 0-1.707 0v13.653c0 3.413-1.707 6.827-3.413 8.533s-5.12 3.413-8.533 3.413c-107.52 0-150.187 51.2-151.893 51.2-1.707 1.707-3.413 3.413-5.12 3.413s-3.413 1.707-6.827 0c-1.707 0-3.413-1.707-5.12-1.707-1.707-1.707-3.413-3.413-3.413-5.12-6.827-13.653-35.84-34.133-52.907-44.373-1.707-1.707-3.413-3.413-5.12-5.12-1.707 0-1.707-1.707-1.707-3.413v0zM414.72 540.16v93.867c17.067 10.24 32.427 23.893 46.080 37.547 18.773-17.067 64.853-46.080 146.773-49.493v-81.92c0-25.6-10.24-49.493-29.013-68.267s-42.667-29.013-68.267-29.013c-25.6 0-49.493 10.24-68.267 29.013-17.067 17.067-27.307 42.667-27.307 68.267v0zM549.547 424.107v-22.187c0-10.24-3.413-18.773-10.24-25.6s-17.067-10.24-25.6-10.24-18.773 3.413-25.6 10.24c-6.827 6.827-10.24 17.067-10.24 25.6v22.187c22.187-6.827 47.787-6.827 71.68 0v0zM421.547 364.373c1.707-13.653 6.827-27.307 17.067-35.84 10.24-10.24 23.893-15.36 37.547-15.36 0 0 0 0 1.707 0 3.413 0 6.827 1.707 8.533 3.413s3.413 5.12 3.413 8.533c0 3.413-1.707 6.827-3.413 8.533s-5.12 3.413-8.533 3.413c-5.12 0-8.533 1.707-13.653 3.413s-8.533 5.12-10.24 6.827c-3.413 3.413-5.12 6.827-6.827 11.947-1.707 3.413-1.707 8.533-1.707 13.653l11.947 3.413c5.12-10.24 11.947-18.773 22.187-25.6s20.48-8.533 32.427-8.533c11.947 0 22.187 3.413 32.427 8.533 10.24 6.827 17.067 15.36 22.187 25.6l11.947-3.413c0-5.12 0-8.533-1.707-13.653-1.707-3.413-3.413-8.533-6.827-11.947s-6.827-5.12-10.24-6.827c-3.413-1.707-8.533-3.413-13.653-3.413-3.413 0-6.827-1.707-8.533-3.413s-3.413-5.12-3.413-8.533c0-3.413 1.707-6.827 3.413-8.533s5.12-3.413 8.533-3.413c0 0 0 0 1.707 0 13.653 0 27.307 5.12 37.547 15.36s17.067 22.187 17.067 35.84l46.080-13.653c15.36-5.12 30.72-13.653 40.96-27.307 10.24-11.947 17.067-27.307 20.48-44.373l18.773-138.24h-52.907v71.68c0 3.413-1.707 6.827-3.413 8.533-3.413 3.413-6.827 5.12-10.24 5.12s-6.827-1.707-8.533-3.413-3.413-5.12-3.413-8.533v-71.68h-126.293v172.373c0 3.413-1.707 6.827-3.413 8.533s-5.12 3.413-8.533 3.413-6.827-1.707-8.533-3.413-3.413-5.12-3.413-8.533v-172.373h-126.293v71.68c0 3.413-1.707 6.827-3.413 8.533s-5.12 3.413-8.533 3.413-6.827-1.707-8.533-3.413-3.413-5.12-3.413-8.533v-71.68h-52.907l18.773 138.24c1.707 17.067 8.533 32.427 20.48 44.373 10.24 11.947 25.6 22.187 40.96 27.307l44.373 11.947z" />
<glyph unicode="&#xe904;" glyph-name="Agregar-tarea" d="M499.2 115.2h-332.8c-8.533 0-12.8 4.267-17.067 8.533s-8.533 12.8-8.533 17.067v640c0 8.533 4.267 12.8 8.533 17.067s12.8 8.533 17.067 8.533h85.333c4.267-12.8 12.8-25.6 25.6-34.133s29.867-12.8 46.933-12.8h162.133c17.067 0 34.133 4.267 46.933 12.8s25.6 21.333 29.867 38.4h85.333c8.533 0 12.8-4.267 17.067-8.533s8.533-12.8 8.533-17.067v-422.4c8.533 0 21.333 4.267 34.133 4.267 8.533 0 12.8 0 21.333 0v418.133c0 21.333-8.533 42.667-21.333 55.467-17.067 17.067-34.133 21.333-55.467 21.333h-85.333c-4.267 17.067-17.067 29.867-29.867 38.4-21.333 12.8-34.133 17.067-51.2 17.067h-162.133c-17.067 0-29.867-4.267-46.933-12.8s-21.333-25.6-25.6-38.4h-85.333c-21.333 0-42.667-8.533-55.467-21.333-17.067-21.333-25.6-38.4-25.6-59.733v-640c0-21.333 8.533-42.667 21.333-55.467 17.067-17.067 38.4-25.6 59.733-25.6h349.867c-8.533 17.067-12.8 34.133-17.067 51.2zM307.2 857.6c4.267 4.267 12.8 8.533 17.067 8.533h162.133c8.533 0 12.8-4.267 17.067-8.533 4.267-8.533 8.533-12.8 8.533-21.333s-4.267-12.8-8.533-17.067c-4.267-4.267-12.8-8.533-17.067-8.533h-162.133c-8.533 0-12.8 4.267-17.067 8.533s-8.533 12.8-8.533 17.067c0 4.267 4.267 12.8 8.533 21.333zM840.533 192h-93.867v102.4c0 4.267-4.267 8.533-8.533 8.533h-64c-4.267 0-8.533-4.267-8.533-8.533v-102.4h-93.867c-4.267 0-8.533-4.267-8.533-8.533v-68.267c0-4.267 4.267-8.533 8.533-8.533h93.867v-102.4c0-4.267 4.267-8.533 8.533-8.533h64c4.267 0 8.533 4.267 8.533 8.533v102.4h93.867c4.267 0 8.533 4.267 8.533 8.533v68.267c0 4.267-4.267 8.533-8.533 8.533zM345.6 614.4c0 8.533 4.267 12.8 8.533 17.067s12.8 8.533 17.067 8.533h187.733c8.533 0 12.8-4.267 17.067-8.533s8.533-12.8 8.533-17.067-4.267-12.8-8.533-17.067c-4.267-4.267-12.8-8.533-17.067-8.533h-183.467c-8.533 0-12.8 4.267-17.067 8.533-8.533 0-12.8 8.533-12.8 17.067zM345.6 452.267c0 8.533 4.267 12.8 8.533 17.067s12.8 8.533 17.067 8.533h187.733c8.533 0 12.8-4.267 17.067-8.533s8.533-12.8 8.533-17.067c0-8.533-4.267-12.8-8.533-17.067s-12.8-8.533-17.067-8.533h-183.467c-8.533 0-12.8 4.267-17.067 8.533-8.533 4.267-12.8 12.8-12.8 17.067zM345.6 294.4c0 8.533 4.267 12.8 8.533 17.067s12.8 8.533 21.333 8.533h187.733c8.533 0 12.8-4.267 17.067-8.533s8.533-12.8 8.533-17.067c0-8.533-4.267-12.8-8.533-17.067s-12.8-8.533-17.067-8.533h-187.733c-8.533 0-12.8 4.267-17.067 8.533-8.533 0-12.8 8.533-12.8 17.067zM294.4 614.4c0-8.533-4.267-21.333-12.8-29.867s-17.067-12.8-29.867-12.8-17.067 4.267-25.6 12.8c-8.533 8.533-12.8 17.067-12.8 29.867s4.267 21.333 12.8 29.867c8.533 8.533 17.067 12.8 29.867 12.8s21.333-4.267 29.867-12.8c4.267-8.533 8.533-21.333 8.533-29.867zM294.4 452.267c0-8.533-4.267-21.333-12.8-29.867s-17.067-12.8-29.867-12.8-21.333 4.267-29.867 12.8c-4.267 8.533-8.533 21.333-8.533 29.867s4.267 21.333 12.8 29.867c8.533 8.533 17.067 12.8 29.867 12.8s21.333-4.267 29.867-12.8c4.267-8.533 8.533-17.067 8.533-29.867zM251.733 251.733c8.533 0 21.333 4.267 29.867 12.8s12.8 17.067 12.8 29.867c0 8.533-4.267 21.333-12.8 29.867s-17.067 12.8-29.867 12.8-17.067-8.533-25.6-17.067c-8.533-4.267-12.8-17.067-12.8-25.6s4.267-21.333 12.8-29.867c8.533-8.533 17.067-12.8 25.6-12.8z" />
<glyph unicode="&#xe905;" glyph-name="agregar-usuario-negro" d="M554.667 618.667c0 94.293-76.373 170.667-170.667 170.667s-170.667-76.373-170.667-170.667c0-94.293 76.373-170.667 170.667-170.667s170.667 76.373 170.667 170.667zM640 533.333v-85.333h128v-128h85.333v128h128v85.333h-128v128h-85.333v-128h-128zM42.667 192v-85.333h682.667v85.333c0 113.493-227.413 170.667-341.333 170.667s-341.333-57.173-341.333-170.667z" />
<glyph unicode="&#xe906;" glyph-name="ajustes" horiz-adv-x="1065" d="M634.88-44.885h-207.531c-16.384 0-30.037 13.653-30.037 30.037v113.323l-32.768 15.019-88.747-84.651c-10.923-10.923-30.037-10.923-40.96 0l-137.899 132.437c-5.461 5.461-9.557 13.653-9.557 21.845s2.731 16.384 9.557 21.845l87.381 83.285-16.384 30.037h-120.149c-16.384 0-30.037 13.653-30.037 30.037v196.608c0 16.384 13.653 30.037 30.037 30.037h120.149l16.384 30.037-87.381 83.285c-5.461 5.461-9.557 13.653-9.557 21.845s2.731 16.384 9.557 21.845l137.899 132.437c10.923 10.923 28.672 10.923 40.96 0l88.747-84.651 34.133 16.384v111.957c0 16.384 13.653 30.037 30.037 30.037h206.165c16.384 0 30.037-13.653 30.037-30.037v-113.323l34.133-16.384 88.747 84.651c10.923 10.923 30.037 10.923 40.96 0l137.899-132.437c5.461-5.461 9.557-13.653 9.557-21.845s-2.731-16.384-9.557-21.845l-88.747-81.92 16.384-30.037h120.149c16.384 0 30.037-13.653 30.037-30.037v-197.973c0-16.384-13.653-30.037-30.037-30.037h-120.149l-16.384-30.037 87.381-83.285c5.461-5.461 9.557-13.653 9.557-21.845s-2.731-16.384-9.557-21.845l-137.899-132.437c-10.923-10.923-30.037-10.923-40.96 0l-88.747 86.016-34.133-16.384v-113.323c0-15.019-12.288-28.672-28.672-28.672zM457.387 13.824h147.456v102.4c0 10.923 6.827 21.845 16.384 25.941l68.267 32.768c10.923 5.461 24.576 2.731 32.768-5.461l83.285-79.189 95.573 91.477-80.555 77.824c-9.557 9.557-12.288 23.211-5.461 35.499l34.133 65.536c5.461 9.557 15.019 16.384 25.941 16.384h107.861v139.264h-107.861c-10.923 0-20.48 5.461-25.941 16.384l-34.133 65.536c-5.461 12.288-4.096 25.941 5.461 35.499l80.555 77.824-95.573 91.477-81.92-81.92c-8.192-8.192-21.845-10.923-32.768-5.461l-68.267 32.768c-10.923 5.461-16.384 15.019-16.384 25.941v103.765h-148.821v-102.4c0-10.923-6.827-21.845-16.384-25.941l-69.632-32.768c-10.923-5.461-24.576-2.731-32.768 5.461l-83.285 79.189-95.573-91.477 80.555-77.824c9.557-9.557 12.288-23.211 5.461-35.499l-34.133-65.536c-5.461-9.557-15.019-16.384-25.941-16.384h-107.861v-139.264h107.861c10.923 0 20.48-5.461 25.941-16.384l34.133-65.536c5.461-12.288 4.096-25.941-5.461-35.499l-80.555-77.824 95.573-91.477 83.285 79.189c8.192 8.192 21.845 10.923 32.768 5.461l69.632-32.768c10.923-5.461 16.384-15.019 16.384-25.941v-101.035zM427.349 775.68v0 0zM531.115 289.621c-90.112 0-163.84 70.997-163.84 157.013s73.728 157.013 163.84 157.013c90.112 0 163.84-70.997 163.84-157.013s-73.728-157.013-163.84-157.013zM531.115 553.131c-61.44 0-111.957-47.787-111.957-106.496s50.517-106.496 111.957-106.496c61.44 0 111.957 47.787 111.957 106.496s-50.517 106.496-111.957 106.496z" />
<glyph unicode="&#xe907;" glyph-name="alarm" d="M535.631 644.923h-78.769v-299.323l244.185-141.785 39.385 63.015-204.8 118.154zM787.692 960l-70.892-78.769 236.308-196.923 70.892 78.769zM307.2 881.231l-70.892 78.769-236.308-196.923 70.892-78.769zM771.938 770.954c-212.677 133.908-504.123 78.769-645.908-126.031s-86.646-488.369 126.031-630.154 496.246-78.769 638.031 126.031c86.646 126.031 102.4 283.569 39.385 425.354-23.631 86.646-86.646 157.538-157.538 204.8zM764.062 140.8c-141.785-133.908-370.215-133.908-512 0s-133.908 362.338 7.877 504.123 370.215 133.908 512 0c70.892-63.015 102.4-157.538 102.4-252.062s-39.385-181.169-110.277-252.062z" />
<glyph unicode="&#xe908;" glyph-name="alarm-borde" horiz-adv-x="1007" d="M765.227 943.365l-62.845-73.935 227.35-190.383 62.845 75.783zM306.83 869.43l-64.693 73.935-227.35-188.534 62.845-75.783zM750.44 762.224c-203.321 134.931-476.881 79.48-613.661-123.841s-79.48-476.881 123.841-613.661 476.881-79.48 613.661 123.841c81.329 123.841 96.116 279.105 38.816 415.884-35.119 81.329-90.57 149.718-162.657 197.776zM746.744 152.26c-134.931-134.931-351.191-134.931-486.123 0s-134.931 351.191 0 486.123 351.191 134.931 486.123 0c64.693-64.693 99.812-151.567 99.812-243.986 1.848-90.57-35.119-179.292-99.812-242.137z" />
<glyph unicode="&#xe909;" glyph-name="alarm-manesillas" horiz-adv-x="1127" d="M606.125 724.17h-82.747v-299.96l213.075-132.396 41.374 68.267-171.701 107.572z" />
<glyph unicode="&#xe90a;" glyph-name="alert" d="M512 238.933c-8.533 0-17.067-4.267-25.6-8.533s-17.067-12.8-17.067-21.333c-4.267-8.533-4.267-17.067-4.267-25.6s8.533-17.067 12.8-25.6c8.533-8.533 17.067-12.8 25.6-12.8s17.067 0 25.6 4.267c8.533 4.267 17.067 8.533 21.333 17.067s8.533 17.067 8.533 25.6c0 12.8-4.267 25.6-12.8 34.133s-21.333 12.8-34.133 12.8zM546.133 593.067h-64v-290.133h64v290.133zM930.133 17.067h-832c-4.267 0-12.8 0-17.067 4.267s-8.533 8.533-12.8 12.8c-4.267 4.267-4.267 8.533-4.267 17.067 0 4.267 0 12.8 4.267 17.067l413.867 802.133c4.267 4.267 8.533 8.533 12.8 12.8s12.8 4.267 17.067 4.267 12.8 0 17.067-4.267 8.533-8.533 12.8-12.8l413.867-806.4c4.267-4.267 4.267-8.533 4.267-17.067 0-4.267 0-12.8-4.267-17.067s-8.533-8.533-12.8-12.8c-4.267 0-8.533 0-12.8 0v0zM149.333 81.067h725.333l-362.667 695.467-362.667-695.467z" />
<glyph unicode="&#xe90b;" glyph-name="alerta" horiz-adv-x="1185" d="M1161.7 189.337l-413.86 684.695c-32.262 51.1-88.229 84.676-152.076 85.206l-0.078 0.001c-0.029 0-0.063 0-0.098 0-32.529 0-63.151-8.166-89.927-22.561l1.014 0.498c-27.576-15.388-50.135-36.729-66.505-62.401l-0.443-0.743-413.1-684.695c-13.372-23.185-21.261-50.992-21.261-80.642s7.889-57.456 21.682-81.436l-0.421 0.794c30.762-53.818 87.013-89.987 151.871-92.046l0.284-0.007h826.96c33.505 0.15 64.941 8.872 92.269 24.083l-0.977-0.499c27.96 16.043 50.616 38.455 66.489 65.347l0.459 0.84c13.401 23.206 21.308 51.042 21.308 80.725 0 0.506-0.002 1.011-0.007 1.516l0.001-0.077c-0.882 30.153-9.534 58.11-24.009 82.164l0.425-0.762zM629.159 167.275c-9.598-9.412-22.758-15.221-37.276-15.221-0.268 0-0.536 0.002-0.803 0.006h0.040c-0.022 0-0.049 0-0.075 0-22.268 0-41.432 13.288-49.997 32.367l-0.139 0.347c-1.258 4.68-1.981 10.054-1.981 15.596s0.723 10.916 2.079 16.031l-0.098-0.435c2.429 11.072 7.789 20.64 15.22 28.154l-0.005-0.005c7.269 7.202 16.61 12.326 27.049 14.399l0.339 0.056c4.669 1.439 10.036 2.267 15.596 2.267s10.927-0.829 15.984-2.369l-0.388 0.102c10.147-4.057 18.463-10.902 24.225-19.589l0.119-0.191c5.394-8.424 8.744-18.619 9.126-29.569l0.003-0.102c0.003-0.214 0.005-0.468 0.005-0.721 0-16.145-6.706-30.725-17.484-41.104l-0.018-0.017zM646.657 367.358c-0.176-29.698-24.291-53.705-54.014-53.705-14.839 0-28.28 5.984-38.043 15.67l0.003-0.003c-9.853 9.314-15.985 22.475-15.985 37.069 0 0.341 0.003 0.681 0.010 1.021l-0.001-0.051v215.299c0.176 29.698 24.291 53.705 54.014 53.705 14.839 0 28.28-5.984 38.043-15.67l-0.003 0.003c9.796-9.719 15.888-23.159 15.976-38.022v-0.017z" />
<glyph unicode="&#xe90c;" glyph-name="Alineacion-izq" d="M128 576h597.333v-85.333h-597.333v85.333zM128 746.667h768v-85.333h-768v85.333zM128 405.333h768v-85.333h-768v85.333zM128 234.667h597.333v-85.333h-597.333v85.333z" />
<glyph unicode="&#xe90d;" glyph-name="aprobaciones" horiz-adv-x="1041" d="M488.107 529.92c3.413 3.413 5.12 8.533 5.12 13.653s-1.707 10.24-5.12 13.653c-3.413 3.413-8.533 5.12-13.653 5.12s-10.24-1.707-13.653-5.12l-54.613-54.613-15.36 13.653c-3.413 3.413-8.533 5.12-13.653 5.12s-10.24-1.707-13.653-6.827c-3.413-3.413-5.12-8.533-5.12-13.653s1.707-10.24 5.12-13.653l29.013-25.6c3.413-3.413 8.533-5.12 13.653-5.12s10.24 1.707 13.653 5.12l68.267 68.267zM488.107 366.080c1.707-1.707 3.413-3.413 3.413-6.827 1.707-1.707 1.707-5.12 1.707-6.827s0-5.12-1.707-6.827c-1.707-1.707-1.707-5.12-3.413-6.827l-66.56-66.56c-3.413-3.413-8.533-5.12-13.653-5.12s-10.24 1.707-13.653 5.12l-29.013 25.6c-3.413 3.413-5.12 8.533-5.12 13.653s1.707 10.24 5.12 13.653c3.413 3.413 8.533 5.12 13.653 6.827 5.12 0 10.24-1.707 13.653-5.12l15.36-13.653 54.613 54.613c1.707 1.707 3.413 3.413 6.827 3.413 1.707 1.707 5.12 1.707 6.827 1.707s5.12 0 6.827-1.707c0-1.707 1.707-3.413 5.12-5.12v0zM551.253 342.187c-5.12 0-10.24-1.707-13.653-5.12s-5.12-8.533-5.12-13.653 1.707-10.24 5.12-13.653c3.413-3.413 8.533-5.12 13.653-5.12h95.573c5.12 0 10.24 1.707 13.653 5.12s5.12 8.533 5.12 13.653-1.707 10.24-5.12 13.653c-3.413 3.413-8.533 5.12-13.653 5.12h-95.573zM530.773 514.56c0 5.12 1.707 10.24 5.12 13.653s8.533 5.12 13.653 5.12h95.573c5.12 0 10.24-1.707 13.653-5.12s5.12-8.533 5.12-13.653-1.707-10.24-5.12-13.653c-3.413-3.413-8.533-5.12-13.653-5.12h-95.573c-5.12 0-10.24 1.707-13.653 5.12-3.413 5.12-5.12 8.533-5.12 13.653zM453.973 755.2c-11.947 0-23.893-3.413-32.427-10.24-10.24-6.827-17.067-17.067-20.48-27.307h-61.44c-15.36 0-30.72-6.827-40.96-17.067s-17.067-25.6-17.067-40.96v-460.8c0-15.36 6.827-30.72 17.067-40.96s25.6-17.067 40.96-17.067h346.453c15.36 0 30.72 6.827 40.96 17.067s17.067 25.6 17.067 40.96v460.8c0 15.36-6.827 30.72-17.067 40.96s-25.6 17.067-40.96 17.067h-61.44c-3.413 11.947-11.947 20.48-20.48 27.307-10.24 6.827-22.187 10.24-32.427 10.24h-117.76zM435.2 697.173c0 5.12 1.707 10.24 5.12 13.653s8.533 5.12 13.653 5.12h116.053c5.12 0 10.24-1.707 13.653-5.12s5.12-8.533 5.12-13.653-1.707-10.24-5.12-13.653c-3.413-3.413-8.533-5.12-13.653-5.12h-116.053c-5.12 0-10.24 1.707-13.653 5.12s-5.12 8.533-5.12 13.653zM339.627 678.4h61.44c3.413-11.947 11.947-20.48 20.48-27.307 10.24-6.827 22.187-10.24 32.427-10.24h116.053c11.947 0 23.893 3.413 32.427 10.24 10.24 6.827 17.067 17.067 20.48 27.307h61.44c5.12 0 10.24-1.707 13.653-5.12s5.12-8.533 5.12-13.653v-460.8c0-5.12-1.707-10.24-5.12-13.653s-8.533-5.12-13.653-5.12h-344.747c-5.12 0-10.24 1.707-13.653 5.12s-5.12 8.533-5.12 13.653v460.8c0 5.12 1.707 10.24 5.12 13.653s8.533 5.12 13.653 5.12v0z" />
<glyph unicode="&#xe90e;" glyph-name="APROBADO-N" horiz-adv-x="1080" d="M898.838 786.143c-94.456 89.549-222.564 139.857-356.146 139.857-133.58 0-261.69-50.308-356.144-139.857s-147.52-211.003-147.52-337.644c0-126.641 53.065-248.096 147.52-337.644 94.455-89.55 222.564-139.857 356.144-139.857 133.582 0 261.69 50.308 356.146 139.857s147.521 211.003 147.521 337.644-53.066 248.096-147.521 337.644v0zM542.692 35c-240.493 0-436.157 185.495-436.157 413.5s195.66 413.5 436.157 413.5c240.498 0 436.158-185.496 436.158-413.5s-195.66-413.5-436.158-413.5zM466.797 348.383l-154.871 146.823-47.734-45.254 202.605-192.080 353.356 334.998-47.735 45.254-305.621-289.742z" />
<glyph unicode="&#xe90f;" glyph-name="arrow-down" horiz-adv-x="983" d="M753.664 431.616l-233.472-233.472v618.496h-61.44v-618.496l-233.472 233.472-40.96-45.056 307.2-307.2 307.2 307.2-45.056 45.056z" />
<glyph unicode="&#xe910;" glyph-name="arrow-left" horiz-adv-x="983" d="M430.080 161.28l45.056 45.056-233.472 233.472h618.496v61.44h-618.496l233.472 233.472-45.056 45.056-307.2-311.296 307.2-307.2z" />
<glyph unicode="&#xe911;" glyph-name="arrow-m-down" d="M512 256l-320 320 46.933 42.667 273.067-273.067 277.333 273.067 42.667-42.667-320-320z" />
<glyph unicode="&#xe912;" glyph-name="arrow-m-left" d="M320 448l320 320 42.667-46.933-273.067-273.067 273.067-277.333-42.667-42.667-320 320z" />
<glyph unicode="&#xe913;" glyph-name="arrow-m-right" d="M704 448l-320-320-46.933 42.667 277.333 277.333-277.333 273.067 46.933 46.933 320-320z" />
<glyph unicode="&#xe914;" glyph-name="arrow-m-up" d="M512 640l320-320-42.667-42.667-277.333 273.067-273.067-273.067-46.933 42.667 320 320z" />
<glyph unicode="&#xe915;" glyph-name="arrow-right" horiz-adv-x="983" d="M552.96 755.2l-45.056-40.96 233.472-233.472h-618.496v-61.44h618.496l-233.472-233.472 45.056-45.056 307.2 307.2-307.2 307.2z" />
<glyph unicode="&#xe916;" glyph-name="arrow-up" horiz-adv-x="983" d="M491.52 816.64l-307.2-307.2 45.056-45.056 233.472 233.472v-618.496h61.44v618.496l233.472-233.472 45.056 45.056-311.296 307.2z" />
<glyph unicode="&#xe917;" glyph-name="bars" horiz-adv-x="969" d="M782.459 576.237h-595.437c-30.104 0-54.756 24.415-54.756 54.756v0c0 30.104 24.415 54.756 54.756 54.756h595.2c30.104 0 54.756-24.415 54.756-54.756v0c0-30.104-24.415-54.756-54.519-54.756zM782.459 393.244h-595.437c-30.104 0-54.756 24.415-54.756 54.756v0c0 30.104 24.415 54.756 54.756 54.756h595.2c30.104 0 54.756-24.415 54.756-54.756v0c0-30.104-24.415-54.756-54.519-54.756zM782.459 210.252h-595.437c-30.104 0-54.756 24.415-54.756 54.756v0c0 30.104 24.415 54.756 54.756 54.756h595.2c30.104 0 54.756-24.415 54.756-54.756v0c0-30.104-24.415-54.756-54.519-54.756z" />
<glyph unicode="&#xe918;" glyph-name="bell" horiz-adv-x="969" d="M865.185 245.807c-82.015 47.644-140.8 124.207-165.689 215.704l-42.43 158.578c-16.593 62.104-51.674 115.911-101.926 155.733-46.459 36.978-101.452 58.785-159.526 63.526l-12.089 45.037c-6.874 26.074-23.704 48.119-47.407 61.867-23.467 13.511-50.726 17.067-77.274 10.193-54.044-14.222-86.281-70.163-71.822-124.444l12.089-45.274c-48.119-33.659-84.622-80.119-106.193-134.874-23.467-59.733-27.259-123.97-10.43-185.837l42.43-158.578c8.059-30.341 12.089-61.156 12.089-92.207 0-62.341-16.356-123.733-47.17-177.067-13.511-22.519-11.615-51.437 4.504-72.059 12.089-15.881 31.052-25.363 50.963-25.363 5.452 0 10.904 0.711 16.83 2.133l219.022 58.785c23.941-40.059 67.793-65.422 115.2-65.659h0.237c38.163 0 74.667 16.356 100.267 45.037 21.57 24.178 33.422 55.23 33.896 87.467l219.022 58.785c28.444 7.585 48.119 33.422 47.881 63.052 0 22.756-12.326 44.089-32.474 55.467zM210.015 215.467c0 37.689-4.978 74.904-14.696 110.933l-42.43 158.578c-26.311 98.607 17.067 202.667 105.481 253.393l0.474 0.237c13.037 7.111 26.311 12.8 39.585 17.067l0.948 0.237c0.474 0.237 0.948 0.237 1.422 0.474 0.948 0.237 2.133 0.711 3.081 0.948s1.659 0.474 2.607 0.948c1.659 0.474 3.081 1.185 4.030 1.185l1.185 0.237c14.933 4.030 30.341 6.4 45.985 7.348h1.422c3.081 0.237 5.926 0.474 8.77 0.474h2.37c101.452 0 190.578-68.504 216.652-166.4l42.43-158.578c28.444-104.059 93.156-192.237 183.467-249.837l-650.904-174.222c31.289 60.444 47.881 128.237 48.119 196.978zM314.311 835.081c-5.926-1.185-11.852-2.37-17.778-3.793h-0.474c-0.237 0-0.711-0.237-0.948-0.237-0.948-0.237-2.133-0.474-3.556-0.948l-1.896-0.711c-0.237 0-0.474-0.237-0.948-0.237-6.163-1.659-12.563-3.793-18.963-6.163l-4.741-1.659-7.822 29.63c-1.896 7.111-0.948 15.17 2.844 21.57l0.237 0.237c5.215 9.007 14.696 14.459 25.126 14.459 13.037 0 24.415-8.77 27.733-21.333l8.059-29.393c-2.37-0.474-4.504-0.948-6.874-1.422zM553.719 47.644c-7.111-17.541-22.281-31.763-41.244-36.978-19.437-5.215-39.348-0.474-54.281 11.378l95.526 25.6z" />
<glyph unicode="&#xe919;" glyph-name="bell-filo" d="M836.267 298.667c-17.067 17.067-25.6 25.6-25.6 46.933v238.933c0 55.467-17.067 110.933-51.2 162.133-34.133 46.933-81.067 85.333-132.267 106.667v0 0c-34.133 12.8-72.533 21.333-110.933 21.333 0 0-4.267 0-4.267 0s-4.267 0-4.267 0c-38.4 0-76.8-12.8-106.667-25.6v0c-55.467-21.333-102.4-59.733-136.533-106.667-29.867-46.933-51.2-102.4-51.2-157.867v-238.933c0-8.533 0-12.8-4.267-17.067-4.267-8.533-12.8-17.067-21.333-25.6-4.267-12.8-12.8-17.067-17.067-25.6 0 0-4.267-4.267-4.267-4.267s-4.267-4.267-4.267-4.267c-12.8-17.067-21.333-38.4-21.333-64v-34.133h260.267v-34.133c0-12.8 4.267-25.6 8.533-38.4 0-4.267 4.267-8.533 4.267-8.533 4.267-12.8 12.8-21.333 21.333-29.867 0 0 4.267-4.267 4.267-4.267 4.267-4.267 4.267-4.267 8.533-8.533 8.533-4.267 17.067-12.8 29.867-12.8 4.267 0 8.533-4.267 17.067-4.267 4.267 0 8.533 0 12.8 0s8.533 0 12.8 0c29.867 0 59.733 12.8 76.8 29.867 21.333 21.333 34.133 46.933 34.133 76.8v34.133h260.267v34.133c-8.533 46.933-38.4 72.533-55.467 93.867zM550.4 128c0-8.533-4.267-17.067-12.8-25.6s-17.067-8.533-25.6-8.533c-8.533 0-21.333 4.267-25.6 8.533-8.533 8.533-12.8 17.067-12.8 25.6v34.133h72.533v-34.133zM230.4 238.933c4.267 4.267 4.267 8.533 8.533 8.533v0c8.533 8.533 12.8 12.8 21.333 21.333 0 0 4.267 4.267 4.267 4.267s4.267 4.267 4.267 4.267c12.8 17.067 21.333 38.4 21.333 64v243.2c0 42.667 12.8 85.333 38.4 119.467s59.733 59.733 98.133 76.8v0c21.333 8.533 42.667 17.067 68.267 17.067h8.533c4.267 0 4.267 0 8.533 0s4.267 0 8.533 0c0 0 8.533 0 8.533 0 21.333 0 46.933-8.533 68.267-17.067v0c42.667-17.067 76.8-42.667 102.4-81.067 25.6-34.133 38.4-76.8 38.4-119.467v-238.933c0-51.2 25.6-76.8 46.933-98.133 4.267-4.267 8.533-8.533 8.533-8.533h-563.2z" />
<glyph unicode="&#xe91a;" glyph-name="biometrica-1" horiz-adv-x="969" d="M483.556 95.763c-112.119 0-224.237 0-336.356 0-38.874 0-59.733 19.2-62.578 57.837-0.711 8.059-0.474 16.356-0.474 24.415 0.474 23.704 13.985 39.585 33.659 49.304 33.659 16.83 66.133 36.030 99.556 53.096 15.407 7.822 32 13.037 48.593 17.304 24.415 6.4 47.407 16.356 68.741 29.63 11.378 7.111 13.748 27.022 4.504 36.741-4.504 4.741-9.244 8.77-13.748 13.511-8.77 9.007-9.244 19.2-1.896 27.022 7.111 7.348 18.015 7.585 26.548 0 19.437-17.778 38.637-36.030 54.044-57.837 6.874-9.719 13.748-19.2 22.044-27.97 8.059-8.296 17.541-12.563 28.919-12.563 19.674-0.237 39.348 0 59.022 0 17.067 0 28.444 9.719 37.689 22.519 18.489 26.074 38.874 50.489 62.815 71.585 3.081 2.607 5.926 5.689 9.481 7.585 8.059 4.030 15.881 2.844 22.044-4.267 5.926-7.111 6.163-14.933 0.948-22.281-2.844-3.793-6.163-7.348-9.956-10.193-10.43-7.585-13.511-17.541-12.326-30.104 0.474-5.689 2.133-9.244 7.111-12.326 20.148-12.8 41.481-23.467 64.711-28.919 35.556-8.296 67.081-25.126 98.37-42.667 14.459-8.059 28.919-16.119 43.852-23.467 39.822-19.2 49.541-35.793 45.985-80.356-3.081-38.874-23.704-57.837-62.815-57.837-112.83 0.237-225.659 0.237-338.489 0.237zM383.289 312.178c-2.133-0.474-1.659-2.133-1.659-3.319 0-12.8 0.237-25.837-0.237-38.637-0.474-10.193-7.822-17.541-17.304-18.015-9.244-0.474-16.593 5.452-18.489 15.407-0.948 4.978-0.948 10.193-1.422 15.17-0.237 2.37-0.237 4.741-3.793 4.741-6.637 0-17.541-9.719-17.778-16.593-0.711-21.096-1.896-41.956 2.133-62.815 4.741-25.126 13.748-48.119 33.659-65.659 7.585-6.4 15.407-9.719 25.6-9.719 64.711 0.474 129.422 0.948 194.133-0.237 18.963-0.237 31.526 6.874 42.667 20.385 8.296 9.956 13.985 21.333 18.252 33.659 8.77 25.6 8.059 51.911 8.296 78.222 0 11.852-5.452 17.067-14.696 21.096-5.689 2.37-7.348 0.711-7.585-4.741s-0.237-10.904-1.659-16.119c-3.556-13.511-20.148-17.541-29.867-7.822-4.741 4.741-5.689 10.43-5.689 16.83 0 12.563 0 25.126 0 38.874-2.133-1.659-2.844-2.133-3.081-2.607-1.422-1.896-3.081-3.793-4.504-5.689-15.407-20.385-34.607-33.659-61.156-35.556-15.17-1.185-30.578 0-45.748-0.948-36.978-2.133-67.319 9.481-88.178 41.481-0.237 1.422-1.185 2.133-1.896 2.607zM316.444 133.689c-4.267 6.874-7.822 12.326-10.667 17.778-16.356 31.763-21.57 65.896-20.622 101.452 0.237 11.378-0.237 11.378-11.378 8.533-17.541-4.267-34.133-10.904-50.015-19.674-24.889-13.748-49.304-28.444-75.141-40.296-20.385-9.244-30.104-21.333-27.022-44.326 2.133-18.015 6.4-24.178 24.889-24.178 53.096 0 106.43 0 159.526 0 2.607 0.237 5.452 0.474 10.43 0.711zM652.8 133.215c5.926 0 9.481 0 13.274 0 48.83 0 97.422 0 146.252 0 33.659 0 34.844 1.896 36.030 35.319 0.474 14.222-5.689 21.807-17.067 27.733-19.674 9.956-38.874 20.385-58.311 31.052-24.889 13.511-49.304 28.207-77.748 34.607-6.163 1.422-11.141 2.844-10.667-6.874 1.422-42.904-5.926-83.674-31.763-121.837zM484.504 443.259c-146.726 0-293.215 0-439.941 0-4.504 0-8.77-0.237-13.274 0.237-8.77 1.185-15.407 8.533-15.644 17.304-0.237 9.007 6.637 17.067 15.881 18.252 3.793 0.474 7.348 0.237 11.141 0.237 76.563 0 153.126 0 229.689 0 2.607 0 5.452-0.237 8.059 0 3.081 0.237 7.348-0.948 8.296 3.793 1.185 4.504-2.133 6.637-5.452 8.533-14.696 7.585-26.785 18.015-36.978 31.052-24.178 30.815-26.785 65.659-18.726 102.163 4.504 20.148 18.489 29.63 38.874 28.207 8.059-0.474 8.77 2.607 9.007 9.007 0.711 23.704 0.474 47.407 5.689 70.637 8.296 36.504 28.919 64.948 59.259 85.57 51.437 35.556 109.274 47.17 170.904 41.481 41.719-3.793 80.83-15.881 115.911-40.059 42.667-29.393 64.474-69.926 65.659-121.837 0.237-12.8 0.948-25.6 1.659-38.637 0.237-4.030 0.711-7.111 6.4-6.637 32.237 1.896 42.193-18.015 44.563-43.378 4.978-51.674-12.8-92.444-59.496-118.281-3.556-1.896-6.4-4.504-4.978-8.77 1.659-4.741 6.163-3.081 9.719-3.081 78.459 0 157.156 0 235.615 0 4.030 0 8.059 0.237 12.089-0.237 8.77-1.185 15.407-9.007 15.407-17.541s-6.637-16.356-15.407-17.541c-4.267-0.711-8.77-0.474-13.274-0.474-146.726 0-293.689 0-440.652 0zM484.741 479.289c48.83 0 97.422 0.237 146.252-0.237 9.719 0 12.089 3.081 11.852 12.326-0.474 17.778-1.422 35.793 2.37 53.57 11.378 53.333 14.459 107.141 9.719 161.422-2.844 32.474-17.067 58.785-42.904 78.696-25.363 19.437-54.519 29.867-85.57 35.319-55.23 9.719-108.089 2.607-156.919-25.837-30.815-18.015-50.726-44.8-54.756-81.067-4.504-38.874-4.030-77.748 0.474-116.385 4.030-35.081 14.459-69.689 10.904-105.719-0.948-9.481 2.607-12.089 11.852-12.089 49.304 0.237 98.133 0 146.726 0zM288.474 533.57c-2.133 12.8-4.267 24.178-5.926 35.556-1.896 12.8-3.793 25.363-5.452 38.163-0.711 5.452-4.978 6.874-9.244 7.822-3.319 0.711-5.215-1.185-5.689-4.267-4.267-27.733-2.844-55.704 26.311-77.274zM681.007 533.57c28.919 22.281 29.867 48.356 26.548 77.037-0.474 4.504-3.319 5.215-7.111 4.267-5.215-1.422-7.822-4.504-8.296-9.956-2.37-23.467-6.874-46.696-11.141-71.348zM957.867 827.259c-6.163 0-11.141 4.978-11.141 11.141v97.422h-94.578c-6.163 0-11.141 4.978-11.141 11.141s4.978 11.141 11.141 11.141h105.719c6.163 0 11.141-4.978 11.141-11.141v-108.563c0-6.163-4.978-11.141-11.141-11.141zM958.341-62.104h-108.563c-6.163 0-11.141 4.978-11.141 11.141s4.978 11.141 11.141 11.141h97.422v94.578c0 6.163 4.978 11.141 11.141 11.141s11.141-4.978 11.141-11.141v-105.719c0-6.163-4.978-11.141-11.141-11.141zM11.615 827.259c-6.163 0-11.141 4.978-11.141 11.141v108.563c0 6.163 4.978 11.141 11.141 11.141h105.719c6.163 0 11.141-4.978 11.141-11.141s-4.978-11.141-11.141-11.141h-94.341v-97.422c0-6.163-4.978-11.141-11.378-11.141zM119.941-62.104h-108.8c-6.163 0-11.141 4.978-11.141 11.141v105.719c0 6.163 4.978 11.141 11.141 11.141s11.141-4.978 11.141-11.141v-94.578h97.422c6.163 0 11.141-4.978 11.141-11.141 0.237-6.163-4.741-11.141-10.904-11.141z" />
<glyph unicode="&#xe91b;" glyph-name="biometrica" horiz-adv-x="969" d="M483.556 95.763c-112.119 0-224.237 0-336.356 0-38.874 0-59.733 19.2-62.578 57.837-0.711 8.059-0.474 16.356-0.474 24.415 0.474 23.704 13.985 39.585 33.659 49.304 33.659 16.83 66.133 36.030 99.556 53.096 15.407 7.822 32 13.037 48.593 17.304 24.415 6.4 47.407 16.356 68.741 29.63 11.378 7.111 13.748 27.022 4.504 36.741-4.504 4.741-9.244 8.77-13.748 13.511-8.77 9.007-9.244 19.2-1.896 27.022 7.111 7.348 18.015 7.585 26.548 0 19.437-17.778 38.637-36.030 54.044-57.837 6.874-9.719 13.748-19.2 22.044-27.97 8.059-8.296 17.541-12.563 28.919-12.563 19.674-0.237 39.348 0 59.022 0 17.067 0 28.444 9.719 37.689 22.519 18.489 26.074 38.874 50.489 62.815 71.585 3.081 2.607 5.926 5.689 9.481 7.585 8.059 4.030 15.881 2.844 22.044-4.267 5.926-7.111 6.163-14.933 0.948-22.281-2.844-3.793-6.163-7.348-9.956-10.193-10.43-7.585-13.511-17.541-12.326-30.104 0.474-5.689 2.133-9.244 7.111-12.326 20.148-12.8 41.481-23.467 64.711-28.919 35.556-8.296 67.081-25.126 98.37-42.667 14.459-8.059 28.919-16.119 43.852-23.467 39.822-19.2 49.541-35.793 45.985-80.356-3.081-38.874-23.704-57.837-62.815-57.837-112.83 0.237-225.659 0.237-338.489 0.237zM383.289 312.178c-2.133-0.474-1.659-2.133-1.659-3.319 0-12.8 0.237-25.837-0.237-38.637-0.474-10.193-7.822-17.541-17.304-18.015-9.244-0.474-16.593 5.452-18.489 15.407-0.948 4.978-0.948 10.193-1.422 15.17-0.237 2.37-0.237 4.741-3.793 4.741-6.637 0-17.541-9.719-17.778-16.593-0.711-21.096-1.896-41.956 2.133-62.815 4.741-25.126 13.748-48.119 33.659-65.659 7.585-6.4 15.407-9.719 25.6-9.719 64.711 0.474 129.422 0.948 194.133-0.237 18.963-0.237 31.526 6.874 42.667 20.385 8.296 9.956 13.985 21.333 18.252 33.659 8.77 25.6 8.059 51.911 8.296 78.222 0 11.852-5.452 17.067-14.696 21.096-5.689 2.37-7.348 0.711-7.585-4.741s-0.237-10.904-1.659-16.119c-3.556-13.511-20.148-17.541-29.867-7.822-4.741 4.741-5.689 10.43-5.689 16.83 0 12.563 0 25.126 0 38.874-2.133-1.659-2.844-2.133-3.081-2.607-1.422-1.896-3.081-3.793-4.504-5.689-15.407-20.385-34.607-33.659-61.156-35.556-15.17-1.185-30.578 0-45.748-0.948-36.978-2.133-67.319 9.481-88.178 41.481-0.237 1.422-1.185 2.133-1.896 2.607zM316.444 133.689c-4.267 6.874-7.822 12.326-10.667 17.778-16.356 31.763-21.57 65.896-20.622 101.452 0.237 11.378-0.237 11.378-11.378 8.533-17.541-4.267-34.133-10.904-50.015-19.674-24.889-13.748-49.304-28.444-75.141-40.296-20.385-9.244-30.104-21.333-27.022-44.326 2.133-18.015 6.4-24.178 24.889-24.178 53.096 0 106.43 0 159.526 0 2.607 0.237 5.452 0.474 10.43 0.711zM652.8 133.215c5.926 0 9.481 0 13.274 0 48.83 0 97.422 0 146.252 0 33.659 0 34.844 1.896 36.030 35.319 0.474 14.222-5.689 21.807-17.067 27.733-19.674 9.956-38.874 20.385-58.311 31.052-24.889 13.511-49.304 28.207-77.748 34.607-6.163 1.422-11.141 2.844-10.667-6.874 1.422-42.904-5.926-83.674-31.763-121.837zM484.504 443.259c-146.726 0-293.215 0-439.941 0-4.504 0-8.77-0.237-13.274 0.237-8.77 1.185-15.407 8.533-15.644 17.304-0.237 9.007 6.637 17.067 15.881 18.252 3.793 0.474 7.348 0.237 11.141 0.237 76.563 0 153.126 0 229.689 0 2.607 0 5.452-0.237 8.059 0 3.081 0.237 7.348-0.948 8.296 3.793 1.185 4.504-2.133 6.637-5.452 8.533-14.696 7.585-26.785 18.015-36.978 31.052-24.178 30.815-26.785 65.659-18.726 102.163 4.504 20.148 18.489 29.63 38.874 28.207 8.059-0.474 8.77 2.607 9.007 9.007 0.711 23.704 0.474 47.407 5.689 70.637 8.296 36.504 28.919 64.948 59.259 85.57 51.437 35.556 109.274 47.17 170.904 41.481 41.719-3.793 80.83-15.881 115.911-40.059 42.667-29.393 64.474-69.926 65.659-121.837 0.237-12.8 0.948-25.6 1.659-38.637 0.237-4.030 0.711-7.111 6.4-6.637 32.237 1.896 42.193-18.015 44.563-43.378 4.978-51.674-12.8-92.444-59.496-118.281-3.556-1.896-6.4-4.504-4.978-8.77 1.659-4.741 6.163-3.081 9.719-3.081 78.459 0 157.156 0 235.615 0 4.030 0 8.059 0.237 12.089-0.237 8.77-1.185 15.407-9.007 15.407-17.541s-6.637-16.356-15.407-17.541c-4.267-0.711-8.77-0.474-13.274-0.474-146.726 0-293.689 0-440.652 0zM484.741 479.289c48.83 0 97.422 0.237 146.252-0.237 9.719 0 12.089 3.081 11.852 12.326-0.474 17.778-1.422 35.793 2.37 53.57 11.378 53.333 14.459 107.141 9.719 161.422-2.844 32.474-17.067 58.785-42.904 78.696-25.363 19.437-54.519 29.867-85.57 35.319-55.23 9.719-108.089 2.607-156.919-25.837-30.815-18.015-50.726-44.8-54.756-81.067-4.504-38.874-4.030-77.748 0.474-116.385 4.030-35.081 14.459-69.689 10.904-105.719-0.948-9.481 2.607-12.089 11.852-12.089 49.304 0.237 98.133 0 146.726 0zM288.474 533.57c-2.133 12.8-4.267 24.178-5.926 35.556-1.896 12.8-3.793 25.363-5.452 38.163-0.711 5.452-4.978 6.874-9.244 7.822-3.319 0.711-5.215-1.185-5.689-4.267-4.267-27.733-2.844-55.704 26.311-77.274zM681.007 533.57c28.919 22.281 29.867 48.356 26.548 77.037-0.474 4.504-3.319 5.215-7.111 4.267-5.215-1.422-7.822-4.504-8.296-9.956-2.37-23.467-6.874-46.696-11.141-71.348zM957.867 827.259c-6.163 0-11.141 4.978-11.141 11.141v97.422h-94.578c-6.163 0-11.141 4.978-11.141 11.141s4.978 11.141 11.141 11.141h105.719c6.163 0 11.141-4.978 11.141-11.141v-108.563c0-6.163-4.978-11.141-11.141-11.141zM958.341-62.104h-108.563c-6.163 0-11.141 4.978-11.141 11.141s4.978 11.141 11.141 11.141h97.422v94.578c0 6.163 4.978 11.141 11.141 11.141s11.141-4.978 11.141-11.141v-105.719c0-6.163-4.978-11.141-11.141-11.141zM11.615 827.259c-6.163 0-11.141 4.978-11.141 11.141v108.563c0 6.163 4.978 11.141 11.141 11.141h105.719c6.163 0 11.141-4.978 11.141-11.141s-4.978-11.141-11.141-11.141h-94.341v-97.422c0-6.163-4.978-11.141-11.378-11.141zM119.941-62.104h-108.8c-6.163 0-11.141 4.978-11.141 11.141v105.719c0 6.163 4.978 11.141 11.141 11.141s11.141-4.978 11.141-11.141v-94.578h97.422c6.163 0 11.141-4.978 11.141-11.141 0.237-6.163-4.741-11.141-10.904-11.141z" />
<glyph unicode="&#xe91c;" glyph-name="building-001" horiz-adv-x="969" d="M430.696 620.8h-72.059c-15.881 0-28.681-12.8-28.681-28.681v-108.089c0-15.881 12.8-28.681 28.681-28.681h72.059c15.881 0 28.681 12.8 28.681 28.681v108.089c0 15.881-13.037 28.681-28.681 28.681zM401.778 563.437v-50.726h-14.696v50.726h14.696zM611.081 620.8h-72.059c-15.881 0-28.681-12.8-28.681-28.681v-108.089c0-15.881 12.8-28.681 28.681-28.681h72.059c15.881 0 28.681 12.8 28.681 28.681v108.089c0 15.881-12.8 28.681-28.681 28.681zM582.163 563.437v-50.726h-14.696v50.726h14.696zM538.785 671.763h72.059c15.881 0 28.681 12.8 28.681 28.681v107.852c0 15.881-12.8 28.681-28.681 28.681h-72.059c-15.881 0-28.681-12.8-28.681-28.681v-108.326c0.237-15.881 12.8-28.207 28.681-28.207zM567.467 728.889v50.726h14.696v-50.726h-14.696zM611.081 404.622h-72.059c-15.881 0-28.681-12.8-28.681-28.681v-108.089c0-15.881 12.8-28.681 28.681-28.681h72.059c15.881 0 28.681 12.8 28.681 28.681v108.089c0 15.881-12.8 28.681-28.681 28.681zM582.163 347.259v-50.726h-14.696v50.726h14.696zM430.696 837.215h-72.059c-15.881 0-28.681-12.8-28.681-28.681v-108.089c0-15.644 12.8-28.444 28.681-28.444h72.059c15.881 0 28.681 12.8 28.681 28.681v107.615c0 15.881-13.037 28.919-28.681 28.919zM401.778 779.615v-50.726h-14.696v50.726h14.696zM430.696 404.622h-72.059c-15.881 0-28.681-12.8-28.681-28.681v-108.089c0-15.881 12.8-28.681 28.681-28.681h72.059c15.881 0 28.681 12.8 28.681 28.681v108.089c0 15.881-13.037 28.681-28.681 28.681zM401.778 347.259v-50.726h-14.696v50.726h14.696zM611.081 198.163h-72.059c-15.881 0-28.681-12.8-28.681-28.681v-108.089c0-15.881 12.8-28.681 28.681-28.681h72.059c15.881 0 28.681 12.8 28.681 28.681v108.089c0 15.881-12.8 28.681-28.681 28.681zM582.163 141.037v-50.963h-14.696v50.726h14.696zM430.696 198.163h-72.059c-15.881 0-28.681-12.8-28.681-28.681v-108.089c0-15.881 12.8-28.681 28.681-28.681h72.059c15.881 0 28.681 12.8 28.681 28.681v108.089c0 15.881-13.037 28.681-28.681 28.681zM401.778 141.037v-50.963h-14.696v50.726h14.696zM718.933 945.304h-468.385c-15.881 0-28.681-12.8-28.681-28.681v-937.007c0-15.881 12.8-28.681 28.681-28.681s28.681 12.8 28.681 28.681v908.089h411.022v-908.326c0-15.881 12.8-28.681 28.681-28.681s28.681 12.8 28.681 28.681v937.007c0 15.881-12.8 28.919-28.681 28.919z" />
<glyph unicode="&#xe91d;" glyph-name="Calendar-1" d="M217.6 866.133c0 17.067 0 38.4 0 55.467 0 21.333 12.8 38.4 34.133 38.4s34.133-17.067 34.133-38.4c0-17.067 0-34.133 0-51.2h448c0 17.067 0 34.133 0 51.2 0 21.333 12.8 38.4 34.133 38.4s34.133-17.067 34.133-38.4c0-17.067 0-34.133 0-51.2h29.867c85.333 0 145.067-59.733 145.067-145.067 0-213.333 0-426.667 0-640 0-81.067-59.733-145.067-145.067-145.067h-644.267c-81.067 0-140.8 59.733-140.8 140.8v644.267c0 81.067 59.733 140.8 140.8 140.8 8.533 0 17.067 0 29.867 0zM110.933 533.333v-12.8c0-145.067 0-290.133 0-439.467 0-46.933 29.867-76.8 76.8-76.8h644.267c51.2 0 76.8 29.867 76.8 76.8 0 145.067 0 290.133 0 435.2v17.067h-797.867zM806.4 797.867c0-25.6 0-51.2 0-76.8 0-17.067-12.8-34.133-34.133-34.133 0 0 0 0 0 0-17.067 0-34.133 12.8-34.133 34.133 0 0 0 0 0 0 0 17.067 0 38.4 0 55.467v21.333h-448v-12.8c0-21.333 0-42.667 0-64 0-17.067-12.8-34.133-29.867-34.133-21.333-4.267-38.4 8.533-42.667 25.6 0 0 0 4.267 0 4.267 0 25.6 0 51.2 0 76.8-12.8 0-21.333 0-34.133 0-42.667 0-72.533-29.867-72.533-72.533 0-34.133 0-72.533 0-106.667v-12.8h797.867c0 42.667 0 85.333 0 128 0 29.867-25.6 55.467-55.467 59.733-12.8 8.533-29.867 8.533-46.933 8.533v0zM593.067 311.467h-170.667v162.133h170.667v-162.133zM665.6 469.333h166.4v-162.133h-166.4v162.133zM593.067 238.933v-157.867h-170.667v157.867h170.667zM665.6 238.933h166.4v-162.133h-166.4v162.133zM354.133 311.467h-166.4v162.133h162.133v-162.133zM187.733 81.067v162.133h162.133v-162.133h-162.133z" />
<glyph unicode="&#xe91e;" glyph-name="Calendar" d="M217.6 866.133c0 17.067 0 38.4 0 55.467 0 21.333 12.8 38.4 34.133 38.4s34.133-17.067 34.133-38.4c0-17.067 0-34.133 0-51.2h448c0 17.067 0 34.133 0 51.2 0 21.333 12.8 38.4 34.133 38.4s34.133-17.067 34.133-38.4c0-17.067 0-34.133 0-51.2h29.867c85.333 0 145.067-59.733 145.067-145.067 0-213.333 0-426.667 0-640 0-81.067-59.733-145.067-145.067-145.067h-644.267c-81.067 0-140.8 59.733-140.8 140.8v644.267c0 81.067 59.733 140.8 140.8 140.8 8.533 0 17.067 0 29.867 0zM110.933 533.333v-12.8c0-145.067 0-290.133 0-439.467 0-46.933 29.867-76.8 76.8-76.8h644.267c51.2 0 76.8 29.867 76.8 76.8 0 145.067 0 290.133 0 435.2v17.067h-797.867zM806.4 797.867c0-25.6 0-51.2 0-76.8 0-17.067-12.8-34.133-34.133-34.133 0 0 0 0 0 0-17.067 0-34.133 12.8-34.133 34.133 0 0 0 0 0 0 0 17.067 0 38.4 0 55.467v21.333h-448v-12.8c0-21.333 0-42.667 0-64 0-17.067-12.8-34.133-29.867-34.133-21.333-4.267-38.4 8.533-42.667 25.6 0 0 0 4.267 0 4.267 0 25.6 0 51.2 0 76.8-12.8 0-21.333 0-34.133 0-42.667 0-72.533-29.867-72.533-72.533 0-34.133 0-72.533 0-106.667v-12.8h797.867c0 42.667 0 85.333 0 128 0 29.867-25.6 55.467-55.467 59.733-12.8 8.533-29.867 8.533-46.933 8.533v0zM593.067 311.467h-170.667v162.133h170.667v-162.133zM665.6 469.333h166.4v-162.133h-166.4v162.133zM593.067 238.933v-157.867h-170.667v157.867h170.667zM665.6 238.933h166.4v-162.133h-166.4v162.133zM354.133 311.467h-166.4v162.133h162.133v-162.133zM187.733 81.067v162.133h162.133v-162.133h-162.133z" />
<glyph unicode="&#xe91f;" glyph-name="calendar1" d="M810.669 831.995h-42.669v85.333h-85.331v-85.333h-341.336v85.333h-85.333v-85.333h-42.667c-47.36 0-84.906-38.4-84.906-85.333l-0.427-597.331c0-22.637 8.991-44.339 24.993-60.346 16.003-16 37.708-24.992 60.34-24.992h597.336c46.931 0 85.331 38.4 85.331 85.338v597.331c0 46.933-38.4 85.333-85.331 85.333zM810.669 149.331h-597.336v426.664h597.336v-426.664zM810.669 661.328h-597.336v85.334h597.336v-85.334zM725.331 447.995h-213.331v-213.332h213.331v213.332z" />
<glyph unicode="&#xe920;" glyph-name="calendar-agregarfestivos" horiz-adv-x="969" d="M274.015 535.23c0-20.859-17.067-37.926-37.926-37.926s-37.926 17.067-37.926 37.926v0c0 20.859 17.067 37.926 37.926 37.926s37.926-16.83 37.926-37.926v0zM604.207 535.23v0c0 20.859-17.067 37.926-37.926 37.926s-37.926-17.067-37.926-37.926v0c0-20.859 17.067-37.926 37.926-37.926s37.926 17.067 37.926 37.926zM769.185 535.23v0c0 20.859-17.067 37.926-37.926 37.926s-37.926-17.067-37.926-37.926v0c0-20.859 17.067-37.926 37.926-37.926s37.926 17.067 37.926 37.926zM274.015 370.252c0 20.859-17.067 37.926-37.926 37.926s-37.926-17.067-37.926-37.926v0c0-20.859 17.067-37.926 37.926-37.926s37.926 16.83 37.926 37.926v0zM236.089 242.963c-20.859 0-37.926-17.067-37.926-37.926v0c0-20.859 17.067-37.926 37.926-37.926s37.926 17.067 37.926 37.926v0c0 20.859-17.067 37.926-37.926 37.926zM438.993 535.23c0 20.859-17.067 37.926-37.926 37.926s-37.926-17.067-37.926-37.926v0c0-20.859 17.067-37.926 37.926-37.926s37.926 17.067 37.926 37.926v0zM438.993 370.252c0 20.859-17.067 37.926-37.926 37.926s-37.926-17.067-37.926-37.926v0c0-20.859 17.067-37.926 37.926-37.926s37.926 16.83 37.926 37.926v0zM401.067 242.963c-20.859 0-37.926-17.067-37.926-37.926v0c0-20.859 17.067-37.926 37.926-37.926s37.926 17.067 37.926 37.926v0c0 20.859-17.304 37.926-37.926 37.926zM970.667 191.763c0-126.815-103.111-229.689-229.689-229.689s-229.689 103.111-229.689 229.689 103.111 229.689 229.689 229.689c126.578 0 229.689-103.111 229.689-229.689zM894.815 191.763c0 84.859-68.978 153.837-153.837 153.837s-153.837-68.978-153.837-153.837 68.978-153.837 153.837-153.837 153.837 68.978 153.837 153.837zM818.489 858.074h-49.304v37.926c0 20.859-17.067 37.926-37.926 37.926s-37.926-17.067-37.926-37.926v-37.926h-172.8v37.926c0 20.859-17.067 37.926-37.926 37.926s-37.926-17.067-37.926-37.926v-37.926h-170.904v37.926c0 20.859-17.067 37.926-37.926 37.926s-37.926-17.067-37.926-37.926v-37.926h-47.407c-83.674 0-151.704-68.030-151.704-151.704v-592.356c0-83.674 68.030-151.704 151.704-151.704h290.607c20.859 0 37.926 17.067 37.926 37.926s-17.067 37.926-37.926 37.926h-290.607c-41.956 0-75.852 34.133-75.852 75.852v592.119c0 41.956 34.133 75.852 75.852 75.852h47.407v-37.926c0-20.859 17.067-37.926 37.926-37.926s37.926 17.067 37.926 37.926v38.163h170.904v-37.926c0-20.859 17.067-37.926 37.926-37.926s37.926 17.067 37.926 37.926v37.926h173.037v-37.926c0-20.859 17.067-37.926 37.926-37.926s37.926 17.067 37.926 37.926v37.926h49.304c41.956 0 75.852-34.133 75.852-75.852v-216.415c0-20.859 17.067-37.926 37.926-37.926s37.926 17.067 37.926 37.926v216.415c0.237 83.674-67.793 151.704-151.941 151.704zM864 194.37c-0.474 13.037-11.378 23.704-24.178 23.704h-74.904v74.904c0 13.274-10.904 24.178-24.178 24.178s-24.178-10.904-24.178-24.178v-74.904h-74.904c-13.274 0-24.178-10.904-24.178-24.178s10.904-24.178 24.178-24.178h74.904v-74.904c0-13.274 10.904-24.178 24.178-24.178s24.178 10.904 24.178 24.178v74.904h74.904c13.274 0 24.178 10.904 24.178 24.178v0.474zM860.444 199.585v0 0 0z" />
<glyph unicode="&#xe921;" glyph-name="calendar-horario" horiz-adv-x="969" d="M129.659 527.407h46.933c12.563 0 22.993 10.193 22.993 22.993 0 12.563-10.193 22.993-22.993 22.993h-46.933c-12.563 0-22.993-10.193-22.993-22.993s10.193-22.993 22.993-22.993zM273.778 527.407h46.933c12.563 0 22.993 10.193 22.993 22.993 0 12.563-10.193 22.993-22.993 22.993h-46.933c-12.563 0-22.993-10.193-22.993-22.993s10.193-22.993 22.993-22.993zM417.896 527.407h46.933c12.563 0 22.993 10.193 22.993 22.993 0 12.563-10.193 22.993-22.993 22.993h-46.933c-12.563 0-22.993-10.193-22.993-22.993s10.193-22.993 22.993-22.993zM562.015 527.407h46.933c12.563 0 22.993 10.193 22.993 22.993 0 12.563-10.193 22.993-22.993 22.993h-46.933c-12.563 0-22.993-10.193-22.993-22.993s10.193-22.993 22.993-22.993zM706.133 527.407h46.933c12.563 0 22.993 10.193 22.993 22.993 0 12.563-10.193 22.993-22.993 22.993h-46.933c-12.563 0-22.993-10.193-22.993-22.993s10.43-22.993 22.993-22.993zM129.659 459.615h46.933c12.563 0 22.993 10.193 22.993 22.993s-10.193 22.993-22.993 22.993h-46.933c-12.563 0-22.993-10.193-22.993-22.993s10.193-22.993 22.993-22.993zM273.778 459.615h46.933c12.563 0 22.993 10.193 22.993 22.993s-10.193 22.993-22.993 22.993h-46.933c-12.563 0-22.993-10.193-22.993-22.993s10.193-22.993 22.993-22.993zM417.896 459.615h46.933c12.563 0 22.993 10.193 22.993 22.993s-10.193 22.993-22.993 22.993h-46.933c-12.563 0-22.993-10.193-22.993-22.993s10.193-22.993 22.993-22.993zM562.015 459.615h46.933c12.563 0 22.993 10.193 22.993 22.993s-10.193 22.993-22.993 22.993h-46.933c-12.563 0-22.993-10.193-22.993-22.993s10.193-22.993 22.993-22.993zM706.133 459.615h46.933c12.563 0 22.993 10.193 22.993 22.993s-10.193 22.993-22.993 22.993h-46.933c-12.563 0-22.993-10.193-22.993-22.993s10.43-22.993 22.993-22.993zM336.83 128c11.852-11.852 27.496-18.252 44.326-18.252s32.474 6.4 44.326 18.252l190.104 190.104c11.852 11.852 18.252 27.496 18.252 44.326s-6.4 32.474-18.252 44.326-27.496 18.252-44.326 18.252-32.474-6.4-44.326-18.252l-145.778-145.778-25.126 25.126c-11.852 11.852-27.496 18.252-44.326 18.252s-32.474-6.4-44.326-18.252c-24.415-24.415-24.415-64.237 0-88.652l69.452-69.452zM299.852 253.393c3.081 3.081 7.348 4.978 11.852 4.978s8.533-1.659 11.852-4.978l41.244-41.244c9.007-9.007 23.467-9.007 32.474 0l161.896 161.896c6.4 6.4 17.067 6.4 23.467 0s6.4-17.067 0-23.467l-190.104-190.104c-3.081-3.081-7.348-4.978-11.852-4.978s-8.533 1.659-11.852 4.978l-68.978 69.452c-6.637 6.4-6.637 17.067 0 23.467zM884.859 290.37v431.17c0 50.489-41.007 91.496-91.496 91.496h-25.837v7.348c0 23.23-18.963 42.193-42.193 42.193h-25.126c-23.23 0-42.193-18.963-42.193-42.193v-7.348h-70.637v7.348c0 23.23-18.963 42.193-42.193 42.193h-25.126c-23.23 0-42.193-18.963-42.193-42.193v-7.348h-70.637v7.348c0 23.23-18.963 42.193-42.193 42.193h-25.126c-23.23 0-42.193-18.963-42.193-42.193v-7.348h-70.637v7.348c0 23.23-18.963 42.193-42.193 42.193h-25.126c-23.23 0-42.193-18.963-42.193-42.193v-7.348h-11.378c-50.489 0-91.496-41.007-91.496-91.496v-642.133c0-24.652 19.911-44.563 44.563-44.563h553.481c35.556-49.778 92.444-79.407 153.6-79.407 104.059 0 188.444 84.622 188.444 188.444 0 57.363-25.363 110.459-69.926 146.489zM838.874 317.867c-22.993 9.481-47.644 14.459-72.533 14.459-104.059 0-188.444-84.622-188.444-188.444 0-21.807 3.556-42.904 10.904-63.289h-528.119v513.185h778.193v-275.911zM766.341 286.341c78.696 0 142.459-64 142.459-142.459s-64-142.459-142.459-142.459c-78.696 0-142.459 64-142.459 142.459s63.763 142.459 142.459 142.459zM163.556 758.519v58.074h17.778v-58.074h-17.778zM703.763 758.519v58.074h17.778v-58.074h-17.778zM159.763 712.533h25.126c23.23 0 42.193 18.963 42.193 42.193v12.326h70.637v-12.326c0-23.23 18.963-42.193 42.193-42.193h25.126c23.23 0 42.193 18.963 42.193 42.193v12.326h70.637v-12.326c0-23.23 18.963-42.193 42.193-42.193h25.126c23.23 0 42.193 18.963 42.193 42.193v12.326h70.637v-12.326c0-23.23 18.963-42.193 42.193-42.193h25.126c23.23 0 42.193 18.963 42.193 42.193v12.326h25.837c25.126 0 45.511-20.385 45.511-45.511v-81.778h-778.193v81.778c0 25.126 20.385 45.511 45.511 45.511h11.378v-12.326c0-23.23 18.963-42.193 42.193-42.193zM523.615 758.519v58.074h17.778v-58.074h-17.778zM343.467 758.519v58.074h17.778v-58.074h-17.778zM766.341 120.889h51.911c12.563 0 22.993 10.193 22.993 22.993s-10.193 22.993-22.993 22.993h-28.919v36.741c0 12.563-10.193 22.993-22.993 22.993s-22.993-10.193-22.993-22.993v-59.496c0-12.8 10.193-23.23 22.993-23.23z" />
<glyph unicode="&#xe922;" glyph-name="calendario_v2" d="M832 810.667h-128v64h-64v-64h-256v64h-64v-64h-128c-34.133 0-64-29.867-64-64v-640c0-34.133 29.867-64 64-64h640c34.133 0 64 29.867 64 64v640c0 34.133-29.867 64-64 64zM832 106.667h-640v448h640v-448zM832 618.667h-640v128h128v-64h64v64h256v-64h64v64h128v-128z" />
<glyph unicode="&#xe923;" glyph-name="calendario-global" horiz-adv-x="1145" d="M572.422-64c-159.006 0-318.012 0-477.019 0-44.522 0-69.963 19.081-89.043 50.882-6.36 12.72-6.36 25.441-6.36 38.161 0 279.851 0 559.702 0 839.553 0 31.801 12.72 57.242 38.161 76.323 12.72 12.72 31.801 19.081 57.242 19.081 69.963 0 146.286 0 216.248 0 248.050 0 489.739 0 737.789 0 31.801 0 57.242-6.36 76.323-25.441 12.72-12.72 19.081-31.801 25.441-50.882 0-19.081 0-31.801 0-50.882 0-267.13 0-534.261 0-801.391 0-19.081 0-38.161-19.081-57.242-19.081-25.441-50.882-38.161-82.683-38.161-159.006 0-318.012 0-477.019 0zM572.422 718.311h-515.18c-19.081 0-19.081 0-19.081-12.72 0-228.969 0-451.578 0-680.547 0-31.801 19.081-44.522 50.882-44.522 318.012 0 636.025 0 960.398 0 31.801 0 50.882 12.72 50.882 44.522v680.547c0 12.72 0 12.72-12.72 12.72h-515.18zM572.422 762.832h515.18c12.72 0 12.72 0 12.72 12.72 0 31.801 0 63.602 0 101.764 0 25.441-19.081 44.522-50.882 44.522-324.373 0-642.385 0-966.758 0-31.801 0-50.882-19.081-50.882-44.522 0-31.801 0-69.963 0-101.764 0-12.72 0-12.72 12.72-12.72h527.901zM890.435 349.416c0-171.727-133.565-318.012-318.012-318.012-178.087 0-318.012 146.286-318.012 318.012s146.286 311.652 318.012 311.652c171.727 6.36 318.012-139.925 318.012-311.652zM356.174 330.335c-19.081 0-31.801 0-50.882 0-6.36 0-6.36 0-6.36-6.36 0-25.441 6.36-50.882 19.081-76.323 0-6.36 6.36-6.36 12.72-6.36 31.801 0 57.242 0 89.043 0 12.72 0 12.72 0 6.36 12.72-6.36 25.441-6.36 50.882-6.36 69.963 0 6.36 0 6.36-6.36 6.36-19.081 0-38.161 0-57.242 0zM769.59 234.932c12.72 0 31.801 0 44.522 0 6.36 0 6.36 0 12.72 6.36 12.72 25.441 19.081 50.882 19.081 76.323 0 6.36 0 6.36-6.36 6.36-31.801 0-69.963 0-101.764 0-6.36 0-6.36 0-6.36-6.36 0-25.441-6.36-50.882-6.36-76.323 0-6.36 0-12.72 6.36-12.72 12.72 6.36 25.441 6.36 38.161 6.36zM356.174 368.497c19.081 0 31.801 0 50.882 0 6.36 0 6.36 0 6.36 6.36 0 25.441 6.36 50.882 6.36 76.323 0 6.36 0 6.36-6.36 6.36-31.801 0-57.242 0-89.043 0 0 6.36-6.36 0-6.36 0-6.36-25.441-19.081-50.882-19.081-76.323 0-6.36 0-6.36 6.36-6.36 19.081-6.36 38.161-6.36 50.882-6.36zM788.671 368.497c19.081 0 31.801 0 50.882 0 6.36 0 6.36 0 6.36 6.36 0 25.441-6.36 50.882-19.081 76.323 0 6.36-6.36 6.36-12.72 6.36-31.801 0-57.242 0-89.043 0-6.36 0-6.36 0-6.36-6.36 6.36-25.441 6.36-50.882 6.36-76.323 0-6.36 0-6.36 12.72-6.36s31.801 0 50.882 0v0zM553.342 285.814c0 12.72 0 25.441 0 38.161 0 6.36 0 6.36-6.36 6.36-25.441 0-50.882 0-76.323 0-6.36 0-6.36 0-6.36-6.36 0-25.441 6.36-50.882 6.36-76.323 0-6.36 6.36-6.36 6.36-6.36 19.081 0 44.522 0 63.602 0 6.36 0 6.36 0 6.36 6.36 6.36 12.72 6.36 25.441 6.36 38.161zM591.503 285.814c0-12.72 0-25.441 0-38.161 0-6.36 0-6.36 6.36-6.36 25.441 0 44.522 0 69.963 0 6.36 0 6.36 0 6.36 6.36 6.36 25.441 6.36 50.882 6.36 76.323 0 6.36 0 6.36-6.36 6.36-25.441 0-50.882 0-76.323 0-6.36 0-6.36 0-6.36-6.36 0-19.081 0-31.801 0-38.161v0zM508.82 368.497c12.72 0 25.441 0 38.161 0 6.36 0 6.36 0 6.36 6.36 0 25.441 0 50.882 0 76.323 0 6.36 0 6.36-6.36 6.36h-69.963c-6.36 0-6.36 0-6.36-6.36-6.36-19.081-6.36-44.522-12.72-69.963 0-6.36 0-6.36 6.36-6.36 19.081-6.36 31.801-6.36 44.522-6.36v0zM591.503 419.379c0-12.72 0-25.441 0-38.161 0-6.36 0-6.36 6.36-6.36 25.441 0 50.882 0 76.323 0 6.36 0 6.36 0 6.36 6.36 0 25.441-6.36 50.882-6.36 76.323 0 6.36-6.36 6.36-12.72 6.36-19.081 0-44.522 0-63.602 0-6.36 0-6.36 0-6.36-6.36 0-19.081 0-31.801 0-38.161v0zM477.019 603.826c0 6.36 0 0 0 0-50.882-19.081-95.404-50.882-127.205-95.404 0 0 0 0 0-6.36 0 0 6.36 0 6.36 0 25.441 0 44.522 0 69.963 0 6.36 0 12.72 6.36 12.72 12.72 12.72 31.801 19.081 57.242 38.161 89.043 0 0 6.36 0 0 0v0zM667.826 610.186c-6.36-6.36 0-6.36 0 0 12.72-25.441 25.441-44.522 31.801-63.602 6.36-12.72 6.36-25.441 12.72-31.801 0-6.36 6.36-6.36 12.72-6.36 25.441 0 50.882 0 76.323 0 0 0 6.36 0 6.36 0s0 6.36 0 6.36c-25.441 38.161-63.602 69.963-108.124 89.043-6.36 0-6.36 6.36-12.72 6.36-12.72-6.36-19.081 0-19.081 0v0zM483.379 88.646c0 6.36-6.36 12.72-6.36 19.081-19.081 25.441-31.801 50.882-38.161 76.323 0 6.36-6.36 6.36-12.72 6.36-25.441 0-50.882 0-76.323 0 0 0-6.36 0-6.36 0s0-6.36 0-6.36c19.081-25.441 44.522-50.882 69.963-69.963 25.441-6.36 44.522-19.081 69.963-25.441v0zM661.466 88.646c6.36 0 6.36 0 6.36 0 50.882 19.081 95.404 50.882 120.845 95.404 0 0 0 0 0 6.36 0 0-6.36 0-6.36 0-25.441 0-50.882 0-76.323 0-6.36 0-6.36 0-12.72-6.36-6.36-19.081-12.72-44.522-25.441-63.602 6.36-6.36 0-19.081-6.36-31.801v0zM553.342 559.304c0 19.081 0 31.801 0 50.882 0 0 0 6.36 0 6.36s-6.36 0-6.36 0c-6.36-6.36-12.72-12.72-19.081-19.081-25.441-25.441-38.161-57.242-44.522-89.043 0-6.36 0-6.36 6.36-6.36 19.081 0 38.161 0 57.242 0 6.36 0 6.36 0 6.36 6.36 0 19.081 0 38.161 0 50.882v0zM591.503 559.304c0-19.081 0-31.801 0-50.882 0-6.36 0-6.36 6.36-6.36 19.081 0 38.161 0 50.882 0 6.36 0 6.36 0 6.36 6.36-6.36 19.081-12.72 44.522-25.441 63.602 0 19.081-12.72 31.801-25.441 38.161 0 0-6.36 6.36-6.36 0 0 0 0-6.36 0-6.36-6.36-12.72-6.36-25.441-6.36-44.522v0zM629.665 196.77c-6.36 0-19.081 0-25.441 0s-12.72 0-12.72-12.72c0-25.441 0-57.242 0-82.683 0-6.36 0-12.72 0-19.081 6.36 0 12.72 6.36 12.72 12.72 25.441 25.441 38.161 57.242 50.882 95.404 0 6.36 0 6.36-6.36 6.36 0 0-12.72 0-19.081 0v0zM553.342 139.528c0 19.081 0 31.801 0 50.882 0 6.36 0 6.36-6.36 6.36-19.081 0-38.161 0-57.242 0-6.36 0-6.36 0-6.36-6.36 6.36-19.081 12.72-38.161 25.441-50.882 12.72-19.081 19.081-31.801 38.161-44.522 0 0 6.36-6.36 6.36 0 0 0 0 6.36 0 6.36 0 6.36 0 19.081 0 38.161zM826.832 820.075c-63.602 0-127.205 0-184.447 0-12.72 0-25.441 6.36-25.441 12.72s0 19.081 6.36 25.441c6.36 6.36 12.72 6.36 19.081 6.36 127.205 0 248.050 0 375.255 0 19.081 0 25.441-6.36 25.441-19.081s-12.72-19.081-25.441-19.081c-63.602-6.36-127.205-6.36-190.807-6.36zM426.137 820.075c-12.72 0-19.081 6.36-25.441 12.72 0 6.36 0 19.081 6.36 25.441s12.72 6.36 19.081 6.36c127.205 0 12.72 0 133.565 0 19.081 0 25.441-6.36 25.441-19.081s-12.72-19.081-25.441-19.081c-63.602-6.36-69.963-6.36-133.565-6.36zM133.565 813.714c12.72 0 25.441 12.72 25.441 25.441s-12.72 25.441-25.441 25.441-19.081-12.72-19.081-25.441 6.36-25.441 19.081-25.441zM209.888 813.714c12.72 0 25.441 12.72 25.441 25.441s-12.72 25.441-25.441 25.441c-19.081 0-25.441-12.72-25.441-25.441s6.36-25.441 25.441-25.441zM279.851 813.714c12.72 0 25.441 12.72 25.441 25.441s-12.72 25.441-25.441 25.441c-12.72 0-25.441-12.72-25.441-25.441s12.72-25.441 25.441-25.441z" />
<glyph unicode="&#xe924;" glyph-name="Camara" d="M512 576c-93.867 0-170.667-76.8-170.667-170.667s76.8-170.667 170.667-170.667 170.667 76.8 170.667 170.667-76.8 170.667-170.667 170.667zM512 320c-46.933 0-85.333 38.4-85.333 85.333s38.4 85.333 85.333 85.333 85.333-38.4 85.333-85.333-38.4-85.333-85.333-85.333zM853.333 704h-110.933l-115.2 115.2c-4.267 4.267-8.533 8.533-12.8 8.533-4.267 4.267-12.8 4.267-17.067 4.267h-170.667c-4.267 0-12.8 0-17.067-4.267-4.267 0-8.533-4.267-12.8-8.533l-115.2-115.2h-110.933c-46.933 0-85.333-38.4-85.333-85.333v-469.333c0-46.933 38.4-85.333 85.333-85.333h682.667c46.933 0 85.333 38.4 85.333 85.333v469.333c0 46.933-38.4 85.333-85.333 85.333zM170.667 149.333v469.333h128c12.8 0 21.333 4.267 29.867 12.8l115.2 115.2h136.533l115.2-115.2c4.267-4.267 8.533-8.533 12.8-8.533 4.267-4.267 12.8-4.267 17.067-4.267h128v-469.333h-682.667z" />
<glyph unicode="&#xe925;" glyph-name="camera" d="M834.56 640h-122.88c-64 71.68-84.48 97.28-110.080 97.28h-176.64c-25.6 0-43.52-23.040-110.080-97.28h-25.6v30.72h-66.56v-30.72h-28.16c-35.84 0-66.56-25.6-66.56-61.44v-350.72c0-35.84 30.72-66.56 66.56-66.56h640c35.84 0 61.44 30.72 61.44 66.56v350.72c0 35.84-25.6 61.44-61.44 61.44zM865.28 227.84c0-17.92-12.8-35.84-28.16-35.84h-640c-17.92 0-35.84 17.92-35.84 35.84v350.72c0 15.36 15.36 28.16 35.84 28.16h135.68l10.24 5.12c7.68 10.24 15.36 20.48 23.040 28.16 23.040 25.6 38.4 43.52 51.2 53.76 10.24 7.68 12.8 7.68 12.8 7.68h176.64c0 0 2.56 0 12.8-10.24 12.8-10.24 28.16-33.28 53.76-58.88 5.12-7.68 12.8-12.8 17.92-20.48l10.24-5.12h138.24c17.92 0 28.16-12.8 28.16-28.16v-350.72zM509.44 552.96c-76.8 0-140.8-64-140.8-140.8s64-140.8 140.8-140.8 140.8 64 140.8 140.8c0 76.8-61.44 140.8-140.8 140.8zM509.44 296.96c-64 0-115.2 51.2-115.2 115.2s51.2 115.2 115.2 115.2 115.2-51.2 115.2-115.2c0-64-51.2-115.2-115.2-115.2z" />
<glyph unicode="&#xe926;" glyph-name="celular" horiz-adv-x="657" d="M584.533 443.733c0-136.533 0-273.067 0-405.333 0-68.267-34.133-102.4-102.4-102.4-102.4 0-204.8 0-307.2 0-68.267 0-102.4 34.133-102.4 102.4 0 273.067 0 546.133 0 819.2 0 68.267 34.133 102.4 102.4 102.4 102.4 0 204.8 0 307.2 0 68.267 0 102.4-34.133 102.4-102.4 0-136.533 0-273.067 0-413.867zM119.467 844.8v-742.4h413.867v742.4h-413.867zM375.467 21.333c0 12.8-4.267 25.6-12.8 34.133-12.8 8.533-21.333 12.8-34.133 12.8s-25.6-4.267-34.133-17.067c-8.533-8.533-12.8-21.333-12.8-34.133s4.267-21.333 12.8-29.867c8.533-8.533 21.333-12.8 34.133-12.8 4.267 0 12.8 0 17.067 4.267s12.8 4.267 17.067 8.533c4.267 4.267 8.533 8.533 8.533 17.067 4.267 4.267 4.267 12.8 4.267 17.067zM328.533 891.733c17.067 0 38.4 0 55.467 0 4.267 0 8.533 8.533 12.8 12.8-4.267 0-8.533 8.533-12.8 8.533-38.4 0-72.533 0-110.933 0-4.267 0-8.533-8.533-12.8-12.8 4.267-4.267 8.533-8.533 17.067-8.533 17.067-4.267 34.133 0 51.2 0v0z" />
<glyph unicode="&#xe927;" glyph-name="cerrar" d="M768 657.067l-42.667 46.933-213.333-209.067-209.067 209.067-46.933-46.933 209.067-209.067-209.067-213.333 46.933-42.667 209.067 209.067 213.333-209.067 42.667 42.667-209.067 213.333 209.067 209.067z" />
<glyph unicode="&#xe928;" glyph-name="check" d="M512 951.467c-277.333 0-503.467-226.133-503.467-503.467s226.133-503.467 503.467-503.467c277.333 0 503.467 226.133 503.467 503.467s-226.133 503.467-503.467 503.467zM473.6 179.2l-238.933 187.733 68.267 85.333 145.067-115.2 243.2 349.867 89.6-64-307.2-443.733z" />
<glyph unicode="&#xe929;" glyph-name="check_2" horiz-adv-x="1327" d="M1197.122 960l-763.396-763.396-303.885 302.964-129.842-129.842 433.727-433.727 893.237 894.158-129.842 129.842z" />
<glyph unicode="&#xe92a;" glyph-name="check-circle-1" horiz-adv-x="1242" d="M620.995 942.597c-272.945 0-494.597-221.653-494.597-494.597s221.653-494.597 494.597-494.597c272.945 0 494.597 221.653 494.597 494.597s-221.653 494.597-494.597 494.597zM900.351 557.911l-318.741-311.413c-11.907-11.907-28.394-18.318-43.964-18.318s-32.973 6.411-43.964 18.318l-152.043 147.463c-11.907 11.907-19.234 28.394-19.234 44.88s6.411 32.973 18.318 44.88c11.907 12.823 28.394 19.234 45.796 19.234 16.487 0 32.973-6.411 43.964-18.318l107.163-104.415 273.86 269.281c11.907 11.907 28.394 18.318 43.964 18.318 17.403 0 32.973-6.411 44.88-19.234 11.907-11.907 18.318-28.394 18.318-44.88 0.916-18.318-5.496-33.889-18.318-45.796z" />
<glyph unicode="&#xe92b;" glyph-name="check-circle" horiz-adv-x="1242" d="M620.995 942.597c-272.945 0-494.597-221.653-494.597-494.597s221.653-494.597 494.597-494.597c272.945 0 494.597 221.653 494.597 494.597s-221.653 494.597-494.597 494.597zM900.351 557.911l-318.741-311.413c-11.907-11.907-28.394-18.318-43.964-18.318s-32.973 6.411-43.964 18.318l-152.043 147.463c-11.907 11.907-19.234 28.394-19.234 44.88s6.411 32.973 18.318 44.88c11.907 12.823 28.394 19.234 45.796 19.234 16.487 0 32.973-6.411 43.964-18.318l107.163-104.415 273.86 269.281c11.907 11.907 28.394 18.318 43.964 18.318 17.403 0 32.973-6.411 44.88-19.234 11.907-11.907 18.318-28.394 18.318-44.88 0.916-18.318-5.496-33.889-18.318-45.796z" />
<glyph unicode="&#xe92c;" glyph-name="contactanos" d="M251.733 541.867c-55.467 0-102.4-38.4-102.4-89.6v-243.2c0-51.2 46.933-89.6 102.4-89.6s102.4 38.4 102.4 89.6v238.933c0 51.2-46.933 93.867-102.4 93.867zM102.4 448c0 8.533 0 17.067 4.267 25.6-38.4-12.8-64-46.933-64-85.333v-123.733c0-38.4 25.6-72.533 64-85.333 0 8.533-4.267 17.067-4.267 25.6v243.2zM776.533 541.867c-55.467 0-98.133-38.4-98.133-89.6v-243.2c0-51.2 42.667-89.6 98.133-89.6 8.533 0 17.067 0 29.867 4.267-12.8-38.4-51.2-64-93.867-64h-102.4c-12.8 34.133-51.2 59.733-93.867 59.733-55.467 0-98.133-38.4-98.133-89.6s42.667-89.6 98.133-89.6c42.667 0 76.8 25.6 93.867 59.733h102.4c89.6 0 162.133 68.267 162.133 149.333v298.667c0 51.2-42.667 93.867-98.133 93.867zM917.333 473.6c0-8.533 4.267-17.067 4.267-25.6v-243.2c0-8.533 0-17.067-4.267-25.6 38.4 12.8 64 46.933 64 85.333v123.733c0 42.667-25.6 76.8-64 85.333zM512 960c-260.267 0-469.333-200.533-469.333-448v0c17.067 12.8 38.4 21.333 64 29.867 12.8 196.267 192 358.4 405.333 358.4s392.533-162.133 405.333-362.667c25.6-4.267 46.933-12.8 64-29.867v0c0 251.733-209.067 452.267-469.333 452.267z" />
<glyph unicode="&#xe92d;" glyph-name="control-de-horario" horiz-adv-x="1042" d="M751.113 608.76v-73.85h-459.314v68.447c0 24.317 17.112 41.428 41.428 41.428h19.814v-46.832c2.702-9.907 12.609-17.112 24.317-14.41 9.907 0 17.112 9.907 17.112 19.814v44.13h258.477v-44.13c0-6.304 2.702-10.807 6.304-14.41s9.006-5.404 13.509-5.404c12.609 0 19.814 9.907 19.814 19.814v44.13c9.907 0 19.814 0 27.018-4.503 16.211-1.801 31.522-17.112 31.522-34.223zM290.899 496.183v-260.278c0-27.018 17.112-44.13 44.13-44.13h371.054c29.72 0 44.13 17.112 44.13 44.13v260.278h-459.314zM428.693 235.004h-93.664v93.664h93.664v-93.664zM428.693 368.296h-93.664v92.763h93.664v-92.763zM569.189 232.303h-98.167v93.664h98.167v-93.664zM569.189 368.296h-98.167v92.763h98.167v-92.763zM706.983 232.303h-96.366v93.664h95.465v-93.664zM706.983 365.594h-96.366v93.664h95.465v-93.664zM520.556 960c-285.495 0-517.854-227.856-517.854-508.848s232.359-508.848 517.854-508.848c286.396 0 517.854 227.856 517.854 508.848s-231.458 508.848-517.854 508.848zM789.84 237.706c0-46.832-34.223-83.757-83.757-83.757h-372.855c-46.832-2.702-81.055 34.223-81.055 81.055v371.054c0 46.832 34.223 81.055 81.055 81.055h19.814v31.522c0 12.609 9.907 22.515 19.814 22.515s19.814-9.907 19.814-22.515v-28.82h258.477v29.72c0 12.609 7.205 22.515 19.814 22.515s19.814-9.907 19.814-22.515v-29.72h17.112c49.534 0 83.757-34.223 83.757-83.757v-368.352z" />
<glyph unicode="&#xe92e;" glyph-name="Copiar" d="M832 896h-537.6c-4.267 0-8.533-4.267-8.533-8.533v-55.467c0-4.267 4.267-8.533 8.533-8.533h494.933v-686.933c0-4.267 4.267-8.533 8.533-8.533h55.467c4.267 0 8.533 4.267 8.533 8.533v729.6c0 17.067-12.8 29.867-29.867 29.867zM704 768h-512c-17.067 0-34.133-12.8-34.133-34.133v-529.067c0-8.533 4.267-17.067 8.533-21.333l174.933-174.933c4.267-4.267 4.267-4.267 8.533-4.267v0h4.267c4.267 0 8.533 0 12.8 0h337.067c17.067 0 34.133 12.8 34.133 34.133v699.733c-4.267 17.067-17.067 29.867-34.133 29.867zM349.867 102.4l-85.333 85.333h85.333v-85.333zM665.6 72.533h-251.733v140.8c0 21.333-17.067 38.4-38.4 38.4h-145.067v443.733h430.933v-622.933z" />
<glyph unicode="&#xe92f;" glyph-name="copy-file-upload" horiz-adv-x="969" d="M722.252 523.615v179.437c0 7.585-2.844 14.933-8.77 21.57l-211.437 222.104c-5.926 6.163-14.459 9.956-23.23 9.956h-334.459c-67.556 0-122.311-55.467-122.311-123.259v-632.889c0-67.556 54.756-122.548 122.311-122.548h258.133c25.6-40.77 61.156-74.667 102.637-98.844 44.8-25.837 95.763-39.585 147.674-39.585 163.556 0 296.533 132.978 296.533 296.059 0.237 136.533-94.815 256.237-227.081 288zM144.356 141.511c-32.948 0-58.785 25.837-58.785 58.785v632.889c0 32.948 26.311 59.733 58.785 59.733h302.933v-119.23c0-56.652 45.985-102.637 102.4-102.637h109.274v-139.141c-1.896 0-3.556 0.237-5.452 0.237-70.163 0-138.667-25.363-193.185-71.348h-259.793c-17.541 0-32-14.222-32-32 0-17.541 14.222-31.763 32-31.763h203.852c-9.244-14.459-16.593-28.207-22.993-42.193h-180.859c-17.541 0-32-14.222-32-31.763s14.222-32 32-32h161.185c-3.556-17.778-5.215-36.741-5.215-55.704 0-32.948 5.215-65.185 15.407-94.341h-216.652v0.474h-10.904zM653.037 467.911c128.237 0 232.533-104.296 232.533-232.533s-104.296-232.533-232.533-232.533-232.533 104.296-232.533 232.533 104.296 232.533 232.533 232.533zM549.452 734.578c-21.333 0-38.637 17.541-38.637 38.874v71.348l104.77-110.222h-66.133zM200.533 501.096h210.015c17.541 0 32 14.222 32 32s-14.222 32-32 32h-210.015c-17.541 0-32-14.222-31.763-32s14.459-32 31.763-32zM676.741 396.326c-6.163 6.4-14.459 9.956-23.23 9.956s-17.067-3.556-23.23-10.193l-121.363-130.37c-5.926-6.163-9.007-14.222-8.77-22.756s3.793-16.356 9.956-22.044c12.563-12.089 32.237-11.378 44.563 1.185l66.37 71.348v-198.163c0-17.541 14.222-32 31.763-32s31.763 14.222 31.763 32v198.4l66.844-71.348c5.926-6.163 13.748-9.719 22.281-9.956s16.83 2.844 22.993 8.77c6.4 5.926 9.956 13.985 9.956 22.756 0.237 8.296-2.844 16.119-8.77 22.044l-121.126 130.37z" />
<glyph unicode="&#xe930;" glyph-name="copy-mas-circulo" d="M874.076 810.076c-96.624 96.624-225.28 149.924-362.076 149.924s-265.452-53.301-362.076-149.924c-96.624-96.624-149.924-225.28-149.924-362.076s53.301-265.452 149.924-362.076c96.624-96.624 225.28-149.924 362.076-149.924s265.452 53.301 362.076 149.924c96.624 96.624 149.924 225.28 149.924 362.076s-53.301 265.452-149.924 362.076zM828.915 130.823c-84.808-84.808-197.186-131.282-316.915-131.282s-232.369 46.736-316.915 131.282c-84.808 84.808-131.282 197.186-131.282 316.915s46.736 232.369 131.282 316.915c84.808 84.808 197.186 131.282 316.915 131.282s232.107-46.474 316.915-131.282c84.808-84.808 131.282-197.186 131.282-316.915s-46.736-232.369-131.282-316.915zM774.039 499.725h-210.314v210.314c0 28.619-23.106 51.725-51.725 51.725s-51.725-23.106-51.725-51.725v-210.314h-210.314c-28.619 0-51.725-23.106-51.725-51.725s23.106-51.725 51.725-51.725h210.314v-210.314c0-28.619 23.106-51.725 51.725-51.725s51.725 23.106 51.725 51.725v210.314h210.314c28.619 0 51.725 23.106 51.725 51.725s-23.106 51.725-51.725 51.725z" />
<glyph unicode="&#xe931;" glyph-name="copy-of-documentos" horiz-adv-x="969" d="M950.756 578.37v0c-13.274 18.726-35.319 29.393-60.444 29.393h-71.822v78.933c0 40.533-32.948 73.244-73.244 73.244h-288.948c-8.77 0-24.889 8.059-30.104 15.407l-21.57 29.63c-18.963 26.074-56.178 44.8-88.415 44.8h-100.267c-35.793 0-71.822-25.363-83.674-59.259l-6.874-19.437c-1.659-4.978-10.43-11.141-15.644-11.141h-30.104c-40.533 0-73.244-32.948-73.244-73.244v-565.807c0-3.556 0.474-7.111 1.659-10.43 0.948-12.8 4.978-24.889 12.326-34.844 13.274-18.726 35.319-29.393 60.444-29.393h638.578c42.904 0 87.467 31.763 101.689 72.059l137.719 393.481c8.059 23.704 5.215 48.119-8.059 66.607zM218.311 511.763c4.267 12.089 20.859 23.704 33.659 23.704h638.341l-137.719-393.481c-4.267-12.089-20.859-23.704-33.659-23.704h-638.341l137.719 393.481zM193.422 747.141l6.874 19.437c1.659 4.978 10.43 11.141 15.644 11.141h100.030c8.77 0 24.889-8.059 30.104-15.407l21.57-29.63c18.963-26.074 56.178-44.8 88.415-44.8h288.948c0.474 0 1.185-0.711 1.185-1.185v-78.933h-494.222c-42.904 0-87.467-31.763-101.689-72.059l-71.822-205.037v356.030c0 0.474 0.711 1.185 1.185 1.185h30.104c35.793 0 71.822 25.6 83.674 59.259z" />
<glyph unicode="&#xe932;" glyph-name="correo" d="M571.733 392.533c-17.067-17.067-42.667-29.867-68.267-29.867s-51.2 8.533-68.267 29.867l-29.867 29.867-166.4-162.133h520.533l-166.4 162.133-21.333-29.867zM217.6 610.133v-324.267l166.4 162.133zM503.467 938.667c-268.8 0-490.667-217.6-490.667-490.667s217.6-490.667 490.667-490.667 490.667 217.6 490.667 490.667c0 273.067-217.6 490.667-490.667 490.667zM832 277.333c0-29.867-25.6-55.467-55.467-55.467h-537.6c-29.867 0-55.467 25.6-55.467 55.467v341.333c0 29.867 25.6 55.467 55.467 55.467h537.6c29.867 0 55.467-25.6 55.467-55.467v-341.333zM503.467 405.333c17.067 0 29.867 4.267 38.4 17.067 8.533 8.533 209.067 209.067 221.867 217.6h-520.533c17.067-17.067 213.333-213.333 221.867-217.6 8.533-12.8 25.6-17.067 38.4-17.067zM793.6 285.867v324.267l-166.4-162.133z" />
<glyph unicode="&#xe933;" glyph-name="delete" d="M1005.182 941.201c5.955-5.944 10.681-13.005 13.911-20.779 3.222-7.774 4.884-16.108 4.884-24.524s-1.662-16.751-4.884-24.524c-3.23-7.774-7.956-14.835-13.911-20.779l-895.813-895.831c-12.015-12.012-28.31-18.763-45.302-18.763s-33.287 6.751-45.302 18.763c-12.015 12.020-18.765 28.318-18.765 45.308s6.75 33.288 18.765 45.3l895.809 895.83c5.947 5.959 13.005 10.687 20.779 13.913s16.108 4.886 24.521 4.886c8.42 0 16.754-1.66 24.529-4.886s14.832-7.954 20.779-13.913v0zM18.798 941.201c-5.959-5.944-10.687-13.005-13.912-20.779s-4.886-16.108-4.886-24.524c0-8.417 1.66-16.751 4.886-24.524s7.953-14.835 13.912-20.779l895.807-895.831c12.020-12.012 28.31-18.763 45.308-18.763 16.991 0 33.288 6.751 45.3 18.763 12.012 12.020 18.763 28.318 18.763 45.308s-6.751 33.288-18.763 45.3l-895.81 895.83c-5.944 5.959-13.005 10.687-20.779 13.913s-16.108 4.886-24.524 4.886c-8.416 0-16.75-1.66-24.524-4.886s-14.835-7.954-20.778-13.913v0z" />
<glyph unicode="&#xe934;" glyph-name="descarga" horiz-adv-x="1041" d="M298.667 550.4l64.853-64.853h8.533c3.413 0 8.533 0 8.533 3.413l64.853 64.853c1.707 1.707 3.413 5.12 3.413 8.533s-1.707 6.827-3.413 8.533c-1.707 1.707-5.12 3.413-8.533 3.413s-5.12-1.707-8.533-3.413l-44.373-44.373v170.667c0 8.533-3.413 11.947-11.947 11.947s-11.947-3.413-11.947-11.947v-170.667l-44.373 44.373c-1.707 1.707-5.12 3.413-8.533 3.413s-5.12-1.707-8.533-3.413c-3.413-3.413-3.413-11.947 0-20.48zM754.347 352.427h-194.56v-25.6h194.56v25.6zM754.347 425.813h-194.56v-25.6h194.56v25.6zM800.427 593.067h-69.973c-6.827 17.067-22.187 27.307-39.253 27.307h-69.973c-17.067 0-32.427-10.24-39.253-27.307h-18.773c0 1.707 0 3.413 0 3.413 0 42.667-13.653 83.627-39.253 117.76s-61.44 58.027-102.4 68.267c-40.96 10.24-83.627 6.827-122.88-8.533-39.253-17.067-71.68-46.080-92.16-81.92-20.48-37.547-29.013-80.213-22.187-121.173s25.6-80.213 56.32-110.933c30.72-29.013 69.973-47.787 110.933-52.907 42.667-5.12 83.627 5.12 121.173 27.307v-285.013c0-5.12 1.707-11.947 3.413-17.067s5.12-10.24 8.533-13.653c3.413-3.413 8.533-6.827 13.653-8.533s10.24-3.413 17.067-3.413h291.84c10.24 0 20.48 3.413 27.307 11.947 6.827 6.827 11.947 17.067 11.947 27.307v404.48c0 5.12-1.707 11.947-3.413 17.067s-5.12 10.24-8.533 13.653-8.533 6.827-13.653 8.533c-8.533 3.413-13.653 3.413-20.48 3.413zM810.667 154.453c0-3.413-1.707-8.533-5.12-11.947s-6.827-5.12-11.947-5.12h-279.893c-3.413 0-5.12 1.707-6.827 3.413s-3.413 5.12-3.413 6.827v402.773c0 3.413 1.707 5.12 3.413 6.827s5.12 3.413 6.827 3.413h64.853v-10.24c0-5.12 1.707-11.947 3.413-17.067s5.12-10.24 8.533-13.653c3.413-3.413 8.533-6.827 13.653-8.533s10.24-3.413 17.067-3.413h66.56c25.6 0 44.373 20.48 44.373 42.667v10.24h66.56c3.413 0 5.12-1.707 6.827-3.413s3.413-5.12 3.413-6.827l1.707-395.947zM687.787 540.16h-64.853c-6.827 0-11.947 1.707-11.947 10.24v27.307c0 3.413 1.707 5.12 3.413 6.827s5.12 3.413 6.827 3.413h66.56c3.413 0 5.12-1.707 6.827-3.413s3.413-5.12 3.413-6.827v-27.307c3.413-6.827-1.707-10.24-10.24-10.24v0zM372.053 434.347c-32.427 0-63.147 10.24-90.453 27.307s-47.787 42.667-59.733 73.387c-11.947 29.013-15.36 63.147-8.533 93.867 6.827 32.427 22.187 61.44 44.373 83.627s51.2 37.547 83.627 44.373c30.72 6.827 64.853 3.413 93.867-8.533s54.613-32.427 73.387-59.733c17.067-27.307 27.307-58.027 27.307-90.453 0-1.707 0-3.413 0-3.413h-20.48c-5.12 0-11.947-1.707-17.067-3.413s-10.24-5.12-13.653-8.533c-3.413-3.413-6.827-8.533-8.533-13.653s-3.413-10.24-3.413-17.067v-81.92c-29.013-23.893-64.853-35.84-100.693-35.84v0z" />
<glyph unicode="&#xe935;" glyph-name="Descargar-reporte" horiz-adv-x="1067" d="M772.267 874.667h-341.333l-256-256v-512c0-46.933 38.4-85.333 85.333-85.333h512c46.933 0 85.333 38.4 85.333 85.333v682.667c0 46.933-38.4 85.333-85.333 85.333zM785.067 802.133v-708.267h-537.6v490.667l217.6 217.6h320zM657.067 392.533l-140.8-140.8-140.8 140.8h106.667v251.733h72.533v-247.467h102.4z" />
<glyph unicode="&#xe936;" glyph-name="descargar-reportes" d="M512 960c-284.444 0-512-227.556-512-512s227.556-512 512-512 512 227.556 512 512-227.556 512-512 512zM768 163.556c0-11.378-5.689-17.067-11.378-22.756s-17.067-11.378-22.756-11.378h-273.067c-5.689 0-11.378 0-17.067 5.689-5.689 0-11.378 5.689-11.378 11.378-5.689 5.689-5.689 5.689-11.378 11.378 0 5.689-5.689 11.378-5.689 17.067v261.689c-34.133-22.756-73.956-28.444-113.778-22.756-28.444 0-68.267 17.067-96.711 45.511s-45.511 62.578-51.2 102.4c-5.689 39.822 0 79.644 22.756 113.778 17.067 34.133 51.2 62.578 85.333 79.644s73.956 17.067 113.778 5.689c39.822-11.378 73.956-34.133 96.711-62.578 22.756-34.133 39.822-68.267 39.822-108.089v-5.689h17.067c5.689 17.067 22.756 28.444 34.133 28.444h62.578c17.067 0 28.444-11.378 39.822-28.444h62.578c5.689 0 11.378 0 17.067-5.689 5.689 0 11.378-5.689 11.378-11.378 5.689 0 5.689-5.689 11.378-5.689 0-5.689 5.689-11.378 5.689-17.067v-381.156zM625.778 533.333v0h-62.578c-5.689 0-11.378 0-11.378 11.378v22.756c0 0 0 5.689 5.689 5.689 0 0 5.689 5.689 5.689 5.689h62.578c0 0 5.689 0 5.689-5.689 0 0 0-5.689 0-5.689v-28.444c5.689 0 0-5.689-5.689-5.689zM733.867 550.4c0 0-5.689 0-5.689 0h-62.578v-11.378c0-17.067-17.067-34.133-39.822-34.133h-62.578c-5.689 0-11.378 0-17.067 0s-11.378 5.689-11.378 11.378c-5.689 5.689-5.689 5.689-11.378 11.378 0 5.689-5.689 11.378-5.689 17.067v5.689h-56.889c0 0-5.689 0-5.689 0s0-5.689 0-5.689v-375.467c0 0 0-5.689 0-5.689s5.689-5.689 5.689-5.689h261.689c5.689 0 5.689 0 11.378 5.689 5.689 0 5.689 5.689 5.689 11.378v369.778c0 0 0 5.689-5.689 5.689zM688.356 334.222h-182.044v22.756h182.044v-22.756zM688.356 402.489h-182.044v22.756h182.044v-22.756zM455.111 669.867c-17.067 22.756-39.822 45.511-68.267 56.889s-56.889 17.067-85.333 11.378c-28.444-5.689-56.889-22.756-79.644-45.511-22.756-17.067-34.133-45.511-39.822-73.956s0-62.578 11.378-85.333c11.378-28.444 28.444-51.2 56.889-68.267 22.756-17.067 56.889-28.444 85.333-28.444s62.578 11.378 85.333 28.444v79.644c0 5.689 0 11.378 5.689 17.067 0 5.689 5.689 11.378 11.378 11.378 5.689 5.689 5.689 5.689 11.378 11.378 5.689 0 11.378 5.689 17.067 5.689h17.067c0 28.444-11.378 56.889-28.444 79.644zM398.222 550.4l-62.578-62.578c0-5.689-5.689-5.689-5.689-5.689h-5.689l-62.578 62.578c-5.689 5.689-5.689 11.378 0 17.067 0 0 5.689 5.689 5.689 5.689 5.689 0 5.689 0 5.689-5.689l39.822-39.822v159.289c0 5.689 5.689 11.378 11.378 11.378 11.378 0 17.067-5.689 17.067-11.378v-159.289l39.822 39.822c0 0 5.689 5.689 5.689 5.689s5.689 0 5.689-5.689c0 0 5.689-5.689 5.689-5.689 5.689-5.689 0-5.689 0-5.689z" />
<glyph unicode="&#xe937;" glyph-name="deseleccionar" d="M276.89 488.96h470.221c5.882 0 10.65-4.768 10.65-10.65v-60.621c0-5.882-4.768-10.65-10.65-10.65h-470.221c-5.882 0-10.65 4.768-10.65 10.65v60.621c0 5.882 4.768 10.65 10.65 10.65zM983.040 960h-938.803c-22.622 0-40.96-18.338-40.96-40.96v0-942.080c0-22.622 18.338-40.96 40.96-40.96v0h942.080c22.622 0 40.96 18.338 40.96 40.96v0 940.442c0.024 0.529 0.038 1.149 0.038 1.773 0 22.622-18.338 40.96-40.96 40.96-1.167 0-2.322-0.049-3.464-0.144l0.149 0.010zM932.25 28.57h-839.68v839.68h839.68z" />
<glyph unicode="&#xe938;" glyph-name="dianeutro" d="M520.533 913.067c-260.267 0-469.333-209.067-469.333-469.333s209.067-469.333 469.333-469.333 469.333 209.067 469.333 469.333c0 260.267-213.333 469.333-469.333 469.333z" />
<glyph unicode="&#xe939;" glyph-name="documentos" horiz-adv-x="1065" d="M678.571 600.917c-6.827 24.576-16.384 49.152-30.037 70.997-40.96 62.805-102.4 110.592-173.397 135.168l-5.461 2.731h-357.717c-10.923-1.365-20.48-6.827-25.941-15.019-6.827-8.192-10.923-17.749-9.557-28.672v-775.509c0-5.461 1.365-10.923 4.096-16.384s5.461-9.557 9.557-13.653c4.096-4.096 9.557-6.827 13.653-8.192 5.461-1.365 10.923-2.731 16.384-2.731h520.192c5.461 0 10.923 1.365 16.384 2.731 5.461 2.731 10.923 5.461 15.019 9.557s8.192 9.557 9.557 15.019c1.365 5.461 2.731 10.923 2.731 16.384v558.421c1.365 16.384 0 32.768-5.461 49.152zM595.285 637.781c9.557-15.019 16.384-30.037 21.845-46.421-12.288 4.096-23.211 6.827-35.499 9.557-27.307 4.096-55.979 5.461-84.651 4.096 6.827 28.672 6.827 58.709 0 88.747-2.731 15.019-8.192 30.037-13.653 45.056 46.421-23.211 84.651-57.344 111.957-101.035zM621.227 9.728h-483.328v735.915h299.008c8.192-20.48 15.019-40.96 20.48-62.805 8.192-27.307 8.192-57.344-2.731-84.651v0c0-2.731 0-6.827 0-9.557s0-6.827 0-9.557c1.365-2.731 2.731-5.461 5.461-8.192s4.096-4.096 8.192-5.461h10.923c32.768 4.096 65.536 4.096 98.304 0 15.019-1.365 28.672-5.461 42.325-12.288l6.827-4.096-5.461-539.307zM210.261 318.293h357.717v-42.325h-357.717v42.325zM210.261 478.037h357.717v-42.325h-357.717v42.325zM831.488 669.184v-43.691h-106.496c-1.365 4.096-1.365 9.557-2.731 13.653-2.731 10.923-5.461 20.48-9.557 31.403h118.784zM831.488 797.525v-43.691h-170.667c-13.653 16.384-28.672 31.403-46.421 43.691h217.088zM727.723 412.501h103.765v-43.691h-103.765v43.691zM727.723 285.525h103.765v-43.691h-103.765v43.691zM727.723 540.843h103.765v-43.691h-103.765v43.691zM914.773 947.712h-507.904c-43.691 0-75.093-35.499-75.093-75.093v-13.653h57.344v13.653c0 9.557 8.192 17.749 17.749 17.749h507.904c9.557 0 17.749-8.192 17.749-17.749v-696.32c0-15.019-12.288-28.672-28.672-28.672h-176.128v-57.344h193.877c36.864 0 68.267 30.037 68.267 68.267v714.069c0 45.056-35.499 75.093-75.093 75.093z" />
<glyph unicode="&#xe93a;" glyph-name="docx" horiz-adv-x="878" d="M867.556 708.741c-7.348 29.63-19.2 57.837-35.081 83.911-47.881 74.43-119.704 130.133-203.852 157.867l-6.4 2.37h-420.030c-12.326-1.896-23.23-8.533-31.052-18.252-8.059-9.481-12.326-21.57-11.852-34.133v-453.452h-99.793c-30.815 0-55.704-24.889-55.704-55.704v-174.933c0-30.815 24.889-55.704 55.704-55.704h99.793v-168.296c0-6.637 1.422-13.274 4.504-19.2 2.844-6.163 6.874-11.615 11.852-16.356 4.741-4.504 10.43-8.059 16.83-10.43 6.163-2.37 12.563-3.556 19.2-3.556h609.659c6.637 0 13.274 1.185 19.674 3.556 6.4 2.607 12.326 6.4 17.304 11.378 4.741 5.215 8.77 11.378 11.852 17.778 2.37 6.4 3.556 13.037 3.556 19.674v655.644c1.185 19.437-0.711 39.111-6.163 57.837zM170.193 256.948c-3.319-2.607-6.874-4.978-10.904-6.874-12.326-6.163-27.97-9.007-45.985-9.007-14.459 0-24.652 0.948-31.526 1.896v121.126c10.193 1.659 23.704 2.607 37.689 2.607 17.067 0 29.63-2.37 40.059-6.874 3.793-1.659 7.348-3.793 10.43-6.163 12.8-9.481 20.859-24.652 20.859-46.459-0.237-23.941-8.77-40.059-20.622-50.252zM768.948 752.119c10.667-17.304 19.2-35.793 25.126-55.23-13.748 4.741-27.97 8.296-42.43 10.904-32.711 4.978-65.659 6.4-98.607 4.504 8.059 34.133 8.059 69.452 0 103.585-4.030 17.778-9.007 35.319-15.407 52.385 54.281-24.889 100.030-65.422 131.319-116.148zM203.378 303.17c0 24.889 10.667 45.748 28.919 56.415 8.77 5.215 19.2 8.059 31.052 8.059 37.926 0 58.548-28.444 58.548-62.341 0-40.533-24.415-64.948-60.444-64.948-11.141 0-20.859 2.607-28.919 7.111-18.963 10.43-29.156 31.289-29.156 55.704zM799.526 15.644h-567.23v145.067h336.593c30.815 0 55.704 24.889 55.704 55.704v174.933c0 30.815-24.889 55.704-55.704 55.704h-336.593v431.881h350.815c10.193-23.467 18.252-47.881 24.178-73.007 4.504-18.963 7.822-36.741 6.4-56.415-1.659-19.674-18.252-49.778-7.585-68.267 5.452-9.481 14.459-11.615 24.415-11.615 38.4 5.215 77.274 5.215 115.437 0 17.304-1.896 33.896-6.874 49.304-14.933l7.348-4.504-3.081-634.548zM403.2 263.585c8.296 0 17.778 1.896 23.23 4.030l4.267-21.807c-5.215-2.607-16.593-5.452-31.763-5.452-42.667 0-64.474 26.785-64.474 61.867 0 41.956 30.104 65.422 67.319 65.422 14.459 0 25.363-2.844 30.341-5.452l-5.689-22.281c-5.689 2.37-13.511 4.504-23.467 4.504-22.044 0-39.348-13.274-39.348-40.77 0-24.652 14.696-40.059 39.585-40.059zM441.6 365.511h32l10.904-22.519c3.556-7.585 6.4-13.511 9.244-20.385h0.474c2.844 7.822 5.452 13.274 8.296 20.385l10.43 22.519h31.763l-34.844-60.207 36.504-63.052h-32l-11.141 22.281c-4.504 8.533-7.348 14.933-10.904 22.044h-0.474c-2.607-7.111-5.689-13.511-9.481-22.044l-10.193-22.281h-31.763l35.556 62.341-34.37 60.919zM160.948 306.015c0-5.452-0.474-10.667-1.659-15.17-4.741-19.2-19.437-28.207-40.059-28.207-3.556 0-7.348 0-9.719 0.474v80.593c2.37 0.474 6.4 1.185 12.563 1.185 18.963 0 32.474-8.533 36.978-25.126 1.422-3.793 1.896-8.533 1.896-13.748zM292.267 304.356c0-23.941-10.904-41.956-29.63-41.956s-30.104 17.067-30.104 41.007c0 23.941 10.904 41.956 29.867 41.956 19.437 0 29.867-18.963 29.867-41.007z" />
<glyph unicode="&#xe93b;" glyph-name="dots-horizontal" horiz-adv-x="1067" d="M277.333 384c34.133 0 64 29.867 64 64s-29.867 64-64 64-64-29.867-64-64 29.867-64 64-64zM533.333 384c34.133 0 64 29.867 64 64s-29.867 64-64 64-64-29.867-64-64 29.867-64 64-64zM789.333 384c34.133 0 64 29.867 64 64s-29.867 64-64 64-64-29.867-64-64 29.867-64 64-64z" />
<glyph unicode="&#xe93c;" glyph-name="dots-vertical" d="M512 640c34.133 0 64 29.867 64 64s-29.867 64-64 64-64-29.867-64-64 29.867-64 64-64zM512 384c34.133 0 64 29.867 64 64s-29.867 64-64 64-64-29.867-64-64 29.867-64 64-64zM512 128c34.133 0 64 29.867 64 64s-29.867 64-64 64-64-29.867-64-64 29.867-64 64-64z" />
<glyph unicode="&#xe93d;" glyph-name="dropdown" d="M839.68 706.048l69.632-73.728-405.504-405.504-405.504 405.504 73.728 73.728 331.776-331.776 335.872 331.776z" />
<glyph unicode="&#xe93e;" glyph-name="edit" horiz-adv-x="969" d="M877.748 349.156c-19.674 0-35.556-15.881-35.556-35.556v-203.141c0-30.578-25.126-55.704-55.941-55.941h-641.659c-30.578 0-55.704 25.126-55.941 55.941v595.911c0 30.578 25.126 55.704 55.941 55.941h203.141c19.674 0 35.556 15.881 35.556 35.556s-15.881 35.556-35.556 35.556h-203.141c-69.926-0.237-127.052-57.126-127.052-127.052v-595.911c0-69.926 57.126-127.052 127.052-127.052h641.896c69.926 0 127.052 57.126 127.052 127.052v203.141c0 19.437-16.119 35.556-35.793 35.556zM920.889 854.756l-26.785 26.785c-20.148 20.148-46.696 31.052-75.141 31.052s-54.993-10.904-75.141-31.052l-407.704-407.941c-3.081-3.081-5.452-7.111-6.874-11.615l-53.807-193.659c-2.37-9.244 0.237-18.726 6.874-25.126 4.978-4.978 11.615-7.585 18.489-7.585 2.37 0 4.741 0.237 6.874 0.948l193.659 53.807c4.030 0.948 7.822 3.319 11.615 6.874l407.941 407.941c20.148 20.148 31.052 46.696 31.052 75.141s-11.141 54.281-31.052 74.43zM446.341 329.007l-108.563-30.104 30.104 108.563 78.459-78.459zM825.126 683.141l-329.481-329.481-103.111 103.111 329.481 329.244 103.111-102.874zM883.911 741.689l-22.044-22.044-103.348 103.111 22.281 22.044c10.193 10.193 23.941 15.881 38.163 15.881 0 0 0 0 0.237 0 14.459 0 27.97-5.689 37.926-15.881l26.785-26.785c21.096-21.096 21.096-55.23 0-76.326z" />
<glyph unicode="&#xe93f;" glyph-name="editar_ics" horiz-adv-x="980" d="M977.427 779.835c-17.025 67.037-59.588 122-116.47 155.016l-1.188 0.637c-20.716 13.967-46.238 22.295-73.705 22.295-13.037 0-25.635-1.876-37.541-5.373l0.94 0.237c-68.739-43.802-127.388-96.017-176.681-156.192l-1.032-1.3-506.791-530.078c-4.25-4.432-7.284-10.062-8.544-16.334l-0.035-0.212-55.765-271.473c-0.547-2.252-0.86-4.838-0.86-7.497 0-9.012 3.602-17.182 9.445-23.15l-0.006 0.006c5.512-6.036 13.416-9.809 22.2-9.809 0.167 0 0.333 0.001 0.499 0.004h4.877l272.086 61.281c6.315 1.553 11.729 4.779 15.92 9.179l0.013 0.013 102.339 102.952-43.509 45.961-95.598-93.759-213.87-48.412 43.509 210.806 466.959 490.245 160.555-159.33-20.835-23.899 47.186-45.961 188.132 215.095c12.741 15.423 20.469 35.396 20.469 57.173 0 7.77-0.984 15.311-2.834 22.504l0.136-0.625zM909.405 743.679l-122.561-137.882-156.879 158.104c40.669 49.258 87.515 91.428 139.822 126.004l2.35 1.459c3.052 0.418 6.579 0.656 10.162 0.656 17.622 0 33.897-5.766 47.042-15.514l-0.213 0.151c42.003-24.247 73.058-63.486 86.098-110.238l0.308-1.293c0.399-1.592 0.628-3.42 0.628-5.301 0-6.318-2.584-12.033-6.754-16.145l-0.003-0.003zM810.743 278.559l-5.515 96.211-61.281-3.677-12.256 29.415 38.607 45.348-61.281 54.54-44.735-44.735-32.479 12.256-3.064 61.281-93.759-4.902 4.902-57.604-34.317-17.771-44.735 39.832-61.281-61.281 44.735-41.058-17.771-32.479h-55.765l3.064-87.631h61.281l18.384-33.092-43.509-43.509 67.409-61.281 42.896 47.799 35.543-11.031v-61.281l94.985 3.677v61.281l29.415 17.159 49.025-41.058 55.765 61.281-41.671 42.896 12.256 31.866zM591.358 241.791c-1.309-0.086-2.838-0.135-4.378-0.135-38.014 0-69.058 29.838-70.99 67.371l-0.007 0.172c-0.065 1.146-0.102 2.487-0.102 3.836 0 38.247 29.694 69.559 67.286 72.139l0.224 0.012c1.19 0.070 2.582 0.111 3.983 0.111 39.659 0 71.809-32.15 71.809-71.809 0-38.258-29.918-69.528-67.635-71.69l-0.191-0.009z" />
<glyph unicode="&#xe940;" glyph-name="Empresa" horiz-adv-x="1382" d="M874.667 503.467v-102.4c0-12.8-4.267-17.067-17.067-17.067h-110.933c-12.8 0-17.067 4.267-17.067 17.067v102.4c0 12.8 4.267 17.067 17.067 17.067h110.933c12.8 0 17.067-4.267 17.067-17.067zM857.6 601.6h-110.933c-12.8 0-17.067 4.267-17.067 17.067v102.4c0 12.8 4.267 17.067 17.067 17.067h110.933c12.8 0 17.067-4.267 17.067-17.067v-102.4c0-12.8-4.267-17.067-17.067-17.067zM507.733 392.533v110.933c0 12.8 4.267 17.067 17.067 17.067h110.933c12.8 0 17.067-4.267 17.067-17.067v-110.933c0-12.8-4.267-17.067-17.067-17.067h-110.933c-4.267 0-17.067 12.8-17.067 17.067zM750.933 294.4h110.933c12.8 0 17.067-4.267 17.067-17.067v-102.4c0-12.8-4.267-17.067-17.067-17.067h-110.933c-12.8 0-17.067 4.267-17.067 17.067v102.4c-4.267 12.8 4.267 17.067 17.067 17.067zM507.733 618.667v102.4c0 12.8 12.8 21.333 17.067 21.333h110.933c12.8 0 17.067-4.267 17.067-17.067v-106.667c0-12.8-4.267-17.067-17.067-17.067h-110.933c-4.267 0-17.067 4.267-17.067 17.067zM524.8 294.4h110.933c12.8 0 17.067-4.267 17.067-17.067v-102.4c0-12.8-4.267-17.067-17.067-17.067h-110.933c-12.8 0-17.067 4.267-17.067 17.067v102.4c0 12.8 12.8 17.067 17.067 17.067zM1237.333 0v652.8c0 51.2-38.4 93.867-89.6 93.867h-132.267v119.467c0 51.2-42.667 93.867-93.867 93.867h-465.067c-51.2 0-93.867-46.933-93.867-93.867v-119.467h-132.267c-51.2 0-93.867-42.667-93.867-93.867v-652.8h-136.533v-64h1382.4v64h-145.067zM362.667 0h-162.133v640c0 17.067 17.067 34.133 38.4 34.133h119.467c4.267 0 4.267-674.133 4.267-674.133zM955.733 0h-529.067v853.333c0 21.333 17.067 38.4 38.4 38.4h448c21.333 0 38.4-17.067 38.4-38.4v-853.333zM1181.867 0h-157.867v674.133h119.467c21.333 0 38.4-17.067 38.4-38.4v-635.733z" />
<glyph unicode="&#xe941;" glyph-name="entrar_modal" horiz-adv-x="1090" d="M596.765 960c-162.579-0.445-306.252-80.994-393.683-204.244l-1.011-1.501 62.458-46.188c73.795 104.995 194.266 172.856 330.607 173.203h0.054c229.929-5.525 414.21-193.227 414.21-423.971 0-3.178-0.035-6.347-0.104-9.509l0.008 0.471c0.061-2.694 0.096-5.868 0.096-9.050 0-230.849-184.221-418.671-413.672-424.473l-0.538-0.011c-129.439 0.755-244.455 61.852-318.438 156.559l-0.676 0.899-61.409-49.337c89.265-113.464 226.393-185.804 380.436-186.325h0.086c273.47 5.84 492.924 228.908 492.924 503.232 0 3.175-0.029 6.344-0.088 9.505l0.007-0.474c0.041 2.385 0.064 5.198 0.064 8.016 0 273.765-218.559 496.482-490.71 503.184l-0.622 0.012zM474.473 235.695l262.43 213.618-262.43 209.419v-160.082l-473.423 3.674-1.050-107.071 473.423-1.050 1.050-158.507z" />
<glyph unicode="&#xe942;" glyph-name="EQUIPO" d="M964.267 251.733v550.4c0 34.133-25.6 59.733-59.733 59.733h-136.533v17.067c0 29.867-25.6 59.733-59.733 59.733-29.867 0-59.733-25.6-59.733-59.733v-21.333h-307.2v21.333c0 29.867-25.6 59.733-59.733 59.733s-55.467-29.867-55.467-59.733v-21.333h-140.8c-34.133 0-59.733-25.6-59.733-55.467v-712.533c0-34.133 25.6-59.733 59.733-59.733h443.733c8.533 0 21.333 8.533 21.333 21.333 0 8.533-8.533 21.333-21.333 21.333h-443.733c-12.8 0-21.333 8.533-21.333 21.333v708.267c0 12.8 8.533 21.333 21.333 21.333h140.8v-21.333c0-29.867 25.6-59.733 59.733-59.733s55.467 25.6 55.467 59.733v17.067h311.467v-21.333c0-29.867 25.6-59.733 59.733-59.733 29.867 0 59.733 25.6 59.733 59.733v21.333h140.8c12.8 0 21.333-8.533 21.333-21.333v-93.867h-733.867c-12.8 0-21.333-8.533-21.333-17.067s8.533-21.333 21.333-21.333h729.6v-384c-17.067 8.533-34.133 17.067-55.467 21.333v290.133c0 8.533-8.533 21.333-21.333 21.333h-716.8c-8.533 0-17.067-8.533-17.067-21.333v-456.533c0-8.533 8.533-21.333 21.333-21.333h512c0-17.067 4.267-38.4 12.8-55.467h-162.133c-8.533 0-21.333-8.533-21.333-21.333 0-8.533 8.533-21.333 21.333-21.333h179.2c34.133-46.933 85.333-76.8 149.333-76.8 98.133 0 179.2 81.067 179.2 179.2 0 59.733-17.067 102.4-46.933 132.267zM302.933 802.133c0-8.533-8.533-21.333-21.333-21.333-8.533 0-17.067 8.533-17.067 21.333v76.8c0 8.533 8.533 21.333 21.333 21.333 8.533 0 21.333-8.533 21.333-21.333v-76.8zM729.6 802.133c0-8.533-8.533-21.333-21.333-21.333-8.533 0-21.333 8.533-21.333 21.333v76.8c0 8.533 8.533 21.333 21.333 21.333 8.533 0 21.333-8.533 21.333-21.333v-76.8zM832 311.467c-8.533 0-17.067 0-25.6 0h-72.533v110.933h106.667l-8.533-110.933c0 0 0 0 0 0zM652.8 157.867h-64v115.2h106.667v-25.6c-25.6-25.6-38.4-55.467-42.667-89.6zM157.867 422.4h106.667v-110.933h-106.667v110.933zM298.667 422.4h106.667v-110.933h-106.667v110.933zM584.533 422.4h106.667v-110.933h-106.667v110.933zM546.133 311.467h-106.667v110.933h106.667v-110.933zM584.533 460.8v115.2h106.667v-115.2h-106.667zM546.133 460.8h-106.667v115.2h106.667v-115.2zM405.333 460.8h-106.667v115.2h106.667v-115.2zM405.333 273.067v-115.2h-106.667v115.2h106.667zM443.733 273.067h106.667v-115.2h-106.667v115.2zM836.267 460.8h-106.667v115.2h106.667v-115.2zM260.267 576v-115.2h-102.4v115.2h102.4zM157.867 273.067h106.667v-115.2h-106.667v115.2zM832-12.8c-76.8 0-140.8 64-140.8 140.8s64 140.8 140.8 140.8c76.8 0 140.8-64 140.8-140.8s-64-140.8-140.8-140.8zM887.467 179.2l-59.733-59.733-25.6 25.6c-8.533 8.533-21.333 8.533-25.6 0-8.533-8.533-8.533-21.333 0-25.6l38.4-38.4c4.267-4.267 8.533-4.267 12.8-4.267s8.533 0 12.8 4.267l72.533 72.533c8.533 8.533 8.533 21.333 0 25.6-8.533 8.533-17.067 8.533-25.6 0zM136.533 674.133c4.267 4.267 4.267 8.533 4.267 12.8s0 8.533-4.267 12.8c-4.267 4.267-8.533 4.267-12.8 4.267-8.533 0-12.8 0-17.067-4.267 0-4.267-4.267-8.533-4.267-12.8s0-8.533 4.267-12.8c4.267-4.267 8.533-4.267 12.8-4.267 8.533-4.267 12.8 0 17.067 4.267z" />
<glyph unicode="&#xe943;" glyph-name="eye-off" horiz-adv-x="969" d="M861.63 71.111c13.748 14.222 13.748 36.504 0 50.489l-704.237 704.474c-6.874 6.874-16.119 10.43-25.126 10.43s-18.252-3.793-25.126-10.43c-13.748-14.222-13.748-36.504 0-50.489l111.407-111.407c-72.533-45.274-143.407-109.748-210.963-192.948-10.193-12.8-10.43-30.341-0.948-43.378 2.844-4.030 75.141-101.689 194.133-179.437 159.763-104.296 327.111-121.837 484.267-50.489l126.578-126.578c13.748-13.985 36.267-14.222 50.015-0.237v0zM522.193 360.296c-34.844-14.933-77.037-8.059-105.481 20.385-18.252 18.252-28.207 42.43-28.207 67.793 0 13.511 2.844 25.837 7.822 37.689l125.867-125.867zM630.281 252.207c-127.526-48.83-258.844-30.104-390.874 55.467-76.089 49.541-131.793 109.037-158.341 140.089 61.393 72.059 124.919 126.815 189.156 164.030l73.481-73.481c-17.304-26.785-26.548-57.837-26.548-90.074 0-44.563 17.304-86.519 48.83-118.044 56.415-56.415 143.644-63.763 208.356-22.519l55.941-55.467zM961.659 425.956c10.193 12.8 10.43 30.341 0.948 43.378-2.844 3.319-62.104 83.911-161.896 156.919-59.022 43.141-120.415 74.904-181.807 94.104-46.933 14.459-94.104 21.807-140.8 21.807-31.052 0-62.104-3.081-92.444-9.719-19.2-3.793-31.763-22.756-27.496-42.193 3.793-19.2 22.756-31.763 42.193-27.496 117.57 25.126 237.985-6.163 356.741-92.919 61.63-44.8 107.141-94.104 130.37-121.363-39.585-46.459-80.356-85.807-121.126-117.57-15.644-12.326-18.252-34.607-6.163-50.015 12.326-15.644 34.607-18.252 50.252-6.163 51.674 40.296 102.4 91.259 151.23 151.23v0z" />
<glyph unicode="&#xe944;" glyph-name="eye-on" horiz-adv-x="969" d="M961.659 470.519c-146.489 180.148-304.356 271.407-470.281 271.407-65.896 0-132.030-14.459-197.926-43.378-51.674-22.756-102.874-54.281-151.941-93.393-83.2-66.844-132.504-133.215-134.637-136.059-9.481-13.037-9.007-30.815 0.948-43.378 146.252-180.385 304.593-271.644 470.519-271.644 65.896 0 132.030 14.459 197.926 43.378 51.674 22.756 102.874 54.281 151.941 93.393 83.2 66.607 132.267 132.978 134.4 135.822 9.481 13.274 9.007 31.052-0.948 43.852v0zM782.222 345.363c-68.978-54.993-177.304-120.178-303.881-120.178-136.533 0-269.985 74.904-396.8 223.052 19.911 23.704 56.652 63.052 105.719 102.163 68.978 54.993 177.304 120.178 303.881 120.178 136.533 0 269.985-74.904 396.8-223.052-19.911-23.704-56.652-63.052-105.719-102.163v0zM616.059 483.556c-19.674 0-35.793-16.119-35.793-35.793 0-52.859-42.667-95.763-95.763-95.763s-95.763 42.667-95.763 95.763 42.667 95.763 95.763 95.763c19.674 0 35.793 16.119 35.793 35.793s-16.119 35.793-35.793 35.793c-92.444 0-166.874-74.904-166.874-167.111s74.904-166.874 166.874-166.874c92.444 0 167.111 74.904 167.111 166.874 0.237 19.437-15.881 35.556-35.556 35.556v0z" />
<glyph unicode="&#xe945;" glyph-name="facebook" horiz-adv-x="969" d="M484.741 932.741c-267.378 0-484.741-217.363-484.741-484.741s217.363-484.741 484.741-484.741c267.378 0 484.741 217.363 484.741 484.741s-217.363 484.741-484.741 484.741v0zM605.393 430.933h-78.696c0-126.104 0-281.126 0-281.126h-116.859c0 0 0 153.6 0 281.126h-55.467v99.319h55.467v64.237c0 45.985 21.807 118.044 118.044 118.044l86.756-0.237v-96.474c0 0-52.622 0-62.815 0s-24.889-4.978-24.889-27.022v-58.311h88.889l-10.43-99.556z" />
<glyph unicode="&#xe946;" glyph-name="file" horiz-adv-x="878" d="M867.556 708.741c-7.348 29.63-19.2 57.837-35.081 83.911-47.881 74.43-119.704 130.133-203.852 157.867l-6.4 2.37h-420.030c-12.326-1.896-23.23-8.533-31.052-18.252-8.059-9.481-12.326-21.57-11.852-34.133v-453.452h-99.793c-30.815 0-55.704-24.889-55.704-55.704v-174.933c0-30.815 24.889-55.704 55.704-55.704h99.793v-168.296c0-6.637 1.422-13.274 4.504-19.2 2.844-6.163 6.874-11.615 11.852-16.356 4.741-4.504 10.43-8.059 16.83-10.43 6.163-2.37 12.563-3.556 19.2-3.556h609.659c6.637 0 13.274 1.185 19.674 3.556 6.4 2.607 12.326 6.4 17.304 11.378 4.741 5.215 8.77 11.378 11.852 17.778 2.37 6.4 3.556 13.037 3.556 19.674v655.644c1.185 19.437-0.711 39.111-6.163 57.837zM768.948 752.119c10.667-17.304 19.2-35.793 25.126-55.23-13.748 4.741-27.97 8.296-42.43 10.904-32.711 4.978-65.659 6.4-98.607 4.504 8.059 34.133 8.059 69.452 0 103.585-4.030 17.778-9.007 35.319-15.407 52.385 54.281-24.889 100.030-65.422 131.319-116.148zM223.763 347.733h-55.941v-33.896h51.911v-19.437h-51.911v-53.333h-23.941v126.104h79.881v-19.437zM799.526 15.644h-567.23v145.067h336.593c30.815 0 55.704 24.889 55.704 55.704v174.933c0 30.815-24.889 55.704-55.704 55.704h-336.593v431.881h350.815c10.193-23.467 18.252-47.881 24.178-73.007 4.504-18.963 7.822-36.741 6.4-56.415-1.659-19.674-18.252-49.778-7.585-68.267 5.452-9.481 14.459-11.615 24.415-11.615 38.4 5.215 77.274 5.215 115.437 0 17.304-1.896 33.896-6.874 49.304-14.933l7.348-4.504-3.081-634.548zM247.467 241.067v126.104h24.178v-126.104h-24.178zM381.393 261.215v-20.148h-82.015v126.104h24.178v-105.956h57.837zM477.156 316.207l0.237-19.674h-53.333v-35.793h59.496v-19.437h-83.674v126.104h80.593v-19.437h-56.652v-31.763h53.333z" />
</font>
</defs>
</svg>
